<?xml version="1.0" standalone="no"?>
<!DOCTYPE svg PUBLIC "-//W3C//DTD SVG 1.1//EN" "http://www.w3.org/Graphics/SVG/1.1/DTD/svg11.dtd" >
<svg xmlns="http://www.w3.org/2000/svg">
<metadata>Generated by IcoMoon</metadata>
<defs>
<font id="dfont" horiz-adv-x="1024">
<font-face units-per-em="1024" ascent="960" descent="-64" />
<missing-glyph horiz-adv-x="1024" />
<glyph unicode="&#x20;" horiz-adv-x="512" d="" />
<glyph unicode="&#xe900;" glyph-name="999" d="M371.2 264.533l68.267-64 580.267 580.267-183.467 179.2-584.533-580.267 68.267-64-251.733-251.733-21.333 21.333-46.933-51.2 89.6-85.333 51.2 46.933-21.333 17.067zM806.4 354.133c-8.533 8.533-17.067 8.533-25.6 0-38.4-34.133-145.067-136.533-157.867-157.867-12.8-17.067-25.6-38.4-25.6-64 0-55.467 42.667-98.133 93.867-98.133 29.867 0 55.467 12.8 72.533 29.867 0-29.867 0-38.4-38.4-59.733-12.8-4.267-17.067-17.067-12.8-29.867s12.8-17.067 25.6-17.067h115.2c12.8 0 21.333 8.533 25.6 21.333s-4.267 21.333-12.8 25.6c-38.4 17.067-42.667 29.867-42.667 59.733 17.067-21.333 42.667-34.133 72.533-29.867 51.2 0 93.867 42.667 93.867 93.867 0 25.6-8.533 46.933-25.6 64-12.8 25.6-119.467 128-157.867 162.133z" />
<glyph unicode="&#xe901;" glyph-name="tv" d="M928 768h-250.4l71.4 82.8c25 25 25 65.6 0 90.6s-65.6 25-90.6 0l-146.4-169.8-146.4 169.6c-25 25-65.6 25-90.6 0s-25-65.6 0-90.6l71.4-82.6h-250.4c-53 0-96-43-96-96v-576c0-53 43-96 96-96h32v-64h96l42.6 64h490.6l42.6-64h96v64h32c53 0 96 43 96 96v576c0.2 53-42.8 96-95.8 96zM784 144s0-16-336-16c-304 0-304 16-304 16s-16 0-16 240 16 240 16 240 0 16 304 16c336 0 336-16 336-16s16 0 16-240-16-240-16-240zM928 344c0-13.2-10.8-24-24-24h-16c-13.2 0-24 10.8-24 24v16c0 13.2 10.8 24 24 24h16c13.2 0 24-10.8 24-24v-16zM928 472c0-13.2-10.8-24-24-24h-16c-13.2 0-24 10.8-24 24v16c0 13.2 10.8 24 24 24h16c13.2 0 24-10.8 24-24v-16z" />
<glyph unicode="&#xe902;" glyph-name="1" d="M511.989 960c-282.305 0-511.989-229.672-511.989-512 0-282.317 229.683-512 512-512s512 229.683 512 512c0 136.772-53.248 265.364-149.97 362.052-96.688 96.711-225.257 149.948-362.041 149.948zM342.335 887.159l155.398-55.319v-163.863l-190.532-138.433-155.83 50.631-4.597 164.671c51.314 63.010 118.568 112.458 195.561 142.313zM116.838 192.387c-43.429 66.913-70.417 145.419-75.002 229.854l100.727 130.81 155.841-50.642 72.772-223.983-96.313-132.551-158.026 46.512zM632.775-7.122c-38.559-10.24-79.019-15.77-120.775-15.77-41.745 0-82.204 5.53-120.764 15.77l-93.298 136.215 96.336 132.574h235.486l96.324-132.562-93.309-136.226zM982.164 422.229c-4.574-84.412-31.562-162.93-74.991-229.831l-158.015-46.524-96.324 132.574 72.761 223.949 155.864 50.642 100.705-130.81zM872.641 580.176l-155.841-50.631-190.532 138.422v163.863l155.739 55.433c60.393-23.347 115.826-59.13 162.975-106.28 11.423-11.423 22.164-23.359 32.256-35.703l-4.597-165.103z" />
<glyph unicode="&#xe903;" glyph-name="2" d="M874.046 810.040c-103.088 103.088-239.206 153.056-374.294 149.806l208.646-208.556c137.056-138.058 136.806-361.098-0.876-498.78-137.68-137.682-360.764-137.994-498.756-0.81v-0.062l-208.616 208.602c-3.186-135.042 46.748-271.226 149.806-374.286 199.928-199.932 524.194-199.932 724.090 0 199.928 199.994 199.928 524.154 0 724.086zM264.076 307.384c51.876-51.626 120.806-79.934 194.052-79.876 73.184 0.126 142.088 28.688 193.836 80.496 51.808 51.748 80.372 120.636 80.496 193.854 0.124 73.216-28.188 142.182-79.808 194.054l-251.894 251.934c-91.934-20.312-179.304-66.248-250.8-137.808-71.436-71.496-117.434-158.806-137.744-250.772l251.862-251.882z" />
<glyph unicode="&#xe904;" glyph-name="3" d="M200.784 58v-92c0-16.568 13.485-30 30.118-30h401.569c16.633 0 30.118 13.432 30.118 30v92h-461.804zM793.098 960h-240.941c-60.968 0-116.409-23.55-157.68-62h157.68c160.533 0 291.137-130.094 291.137-290v-30c0-9.494-0.649-18.838-1.879-28h31.997c83.167 0 150.588 67.158 150.588 150v30c0 127.026-103.378 230-230.902 230zM381.478 598c77.499 0 140.549-62.802 140.549-140 0-10.298-1.155-20.328-3.283-30h113.726c83.167 0 150.588 67.158 150.588 150v30c0 127.026-103.378 230-230.902 230h-240.941c-127.524 0-230.902-102.974-230.902-230v-29.832c28.977 12.74 60.996 19.832 94.652 19.832h206.513zM431.686 218c-33.214 0-60.235-26.916-60.235-60v-40h120.471v40c0 33.084-27.022 60-60.235 60zM873.412 490h-30.118v-77.6c0-58.766-8.81-116.818-25.921-172.4h116.642c58.354 86.678 89.986 189.166 89.986 294.4v18.792c-38.296-38.966-91.65-63.192-150.588-63.192zM873.412 180h-78.103c-14.32-33.114-31.76-65.044-52.208-95.418l-17.896-26.582h148.207c16.633 0 30.118 13.432 30.118 30v92h-30.118zM632.471 368h-143.472c-24.843-29.398-61.573-48.504-102.757-49.88-4.833-0.468-9.766-0.626-14.788-0.462l-150.584 0.286c-16.627 0.032-30.090 13.466-30.090 30.028 0 16.584 13.497 30.028 30.146 30.028h160.551c44.355 0 80.314 35.818 80.314 80s-35.958 80-80.314 80h-204.21c-92.098 0-170.181-70.076-176.807-161.576-3.476-47.986 12.856-94.684 45.062-129.96l108.321-118.646c5.708-6.252 13.798-9.816 22.281-9.816h135.092v40c0 66.168 54.043 120 120.471 120s120.471-53.832 120.471-120v-40h140.916c58.354 86.676 89.986 189.164 89.986 294.398v18.792c-38.296-38.966-91.65-63.192-150.588-63.192z" />
<glyph unicode="&#xe905;" glyph-name="4" d="M334.692 629.706c-34.875-34.314-82.333-53.536-131.784-53.38-27.309 0.029-54.282 5.904-79.026 17.213l247.541 242.274c33.335-69.416 18.647-151.835-36.73-206.107v0zM354.059 865.008l-259.784-254.257c-16.373 11.377-30.671 25.371-42.296 41.396l259.784 254.257c8.145-5.712 15.813-12.050 22.929-18.955 7.117-6.908 13.598-14.418 19.367-22.441v0zM282.157 923.615l-247.541-242.274c-27.086 56.382-22.828 122.406 11.287 175.007s93.347 84.472 157.005 84.479c27.381-0.028 54.426-5.902 79.249-17.212zM372.936 264.464l66.627-64.033 581.988 579.976-186.835 179.592-581.988-579.976 66.627-64.033-252.394-250.924-19.033 18.301-47.928-48.389 91.648-88.086 47.928 48.368-19.011 18.301z" />
<glyph unicode="&#xe906;" glyph-name="5" d="M512 210.295c-97.946 0-189.15-7.509-266.974-20.275v572.194l339.217 92.518-339.217 105.267h-37.683v-776.806c-125.594-24.986-207.343-64.922-207.343-110.029 0-75.742 229.239-137.165 512-137.165s512 61.423 512 137.165c0 75.742-229.239 137.131-512 137.131zM304.708 28.518c-43.366 0-78.524 20.002-78.524 44.646 0 24.61 35.157 44.612 78.524 44.612s78.507-20.002 78.507-44.612c0-24.644-35.157-44.646-78.507-44.646z" />
<glyph unicode="&#xe907;" glyph-name="6" d="M200.784 58v-92c0-16.568 13.485-30 30.118-30h401.569c16.633 0 30.118 13.432 30.118 30v92h-461.804zM793.098 960h-240.941c-60.968 0-116.409-23.55-157.68-62h157.68c160.533 0 291.137-130.094 291.137-290v-30c0-9.494-0.649-18.838-1.879-28h31.997c83.167 0 150.588 67.158 150.588 150v30c0 127.026-103.378 230-230.902 230zM381.478 598c77.499 0 140.549-62.802 140.549-140 0-10.298-1.155-20.328-3.283-30h113.726c83.167 0 150.588 67.158 150.588 150v30c0 127.026-103.378 230-230.902 230h-240.941c-127.524 0-230.902-102.974-230.902-230v-29.832c28.977 12.74 60.996 19.832 94.652 19.832h206.513zM431.686 218c-33.214 0-60.235-26.916-60.235-60v-40h120.471v40c0 33.084-27.022 60-60.235 60zM873.412 490h-30.118v-77.6c0-58.766-8.81-116.818-25.921-172.4h116.642c58.354 86.678 89.986 189.166 89.986 294.4v18.792c-38.296-38.966-91.65-63.192-150.588-63.192zM873.412 180h-78.103c-14.32-33.114-31.76-65.044-52.208-95.418l-17.896-26.582h148.207c16.633 0 30.118 13.432 30.118 30v92h-30.118zM632.471 368h-143.472c-24.843-29.398-61.573-48.504-102.757-49.88-4.833-0.468-9.766-0.626-14.788-0.462l-150.584 0.286c-16.627 0.032-30.090 13.466-30.090 30.028 0 16.584 13.497 30.028 30.146 30.028h160.551c44.355 0 80.314 35.818 80.314 80s-35.958 80-80.314 80h-204.21c-92.098 0-170.181-70.076-176.807-161.576-3.476-47.986 12.856-94.684 45.062-129.96l108.321-118.646c5.708-6.252 13.798-9.816 22.281-9.816h135.092v40c0 66.168 54.043 120 120.471 120s120.471-53.832 120.471-120v-40h140.916c58.354 86.676 89.986 189.164 89.986 294.398v18.792c-38.296-38.966-91.65-63.192-150.588-63.192z" />
<glyph unicode="&#xe908;" glyph-name="7" horiz-adv-x="981" d="M299.539 593.98h173.176v-137.552h-173.176zM76.167 593.98h188.235v-137.552h-188.235zM299.539 420.766h173.176v-129.91h-173.176zM41.029 273.502v427.463h-40.157v-764.179h40.157zM76.167 420.766h188.235v-129.91h-188.235zM718.676 593.98h185.725v-137.552h-185.725zM939.539 700.965h40.157v-764.179h-40.157zM507.853 593.98h175.686v-137.552h-175.686zM718.676 420.766h185.725v-129.91h-185.725zM507.853 420.766h175.686v-129.91h-175.686zM663.745 876.587c0-46.080-36.794-83.423-82.186-83.423s-82.196 37.343-82.196 83.423c0 46.070 36.804 83.413 82.196 83.413s82.186-37.343 82.186-83.413z" />
<glyph unicode="&#xe909;" glyph-name="8" horiz-adv-x="1069" d="M446.157 159.637l345.048 349.042c1.040 110.77-43.711 226.844-132.722 316.892-163.371 165.262-413.469 180.217-558.605 33.401-145.143-146.823-130.36-399.815 33.012-565.077 89.018-90.048 203.764-135.317 313.267-134.258zM484.371 161.771c0 0 104.708 73.5 196.685 13.177s219.335-234.14 219.335-234.14c0 0 24.26 6.137 62.663 44.985 38.411 38.855 44.47 63.388 44.47 63.388s-171.828 128.825-231.461 221.874c-59.633 93.042 13.026 198.962 13.026 198.962 0.014 0.149 0.021 0.306 0.035 0.462l-305.218-308.75c0.162 0.021 0.316 0.028 0.464 0.043zM1066.652 384.348c0-52.693-42.228-95.41-94.318-95.41s-94.318 42.716-94.318 95.41c0 52.693 42.228 95.41 94.318 95.41s94.318-42.716 94.318-95.41z" />
<glyph unicode="&#xe90a;" glyph-name="9" horiz-adv-x="1229" d="M1219.348 556v-216h-144.148v216zM791.631 448c0 86.928-60.986 159.653-141.785 176.378v-352.754c80.798 16.723 141.785 89.448 141.785 176.376zM649.846 697.418c120.082-17.522 212.677-122.686 212.677-249.418s-92.595-231.895-212.677-249.418v-218.582h463.163c58.635 0 106.338 48.449 106.338 108v180h-179.594c-19.576 0-35.446 16.118-35.446 36v288c0 19.882 15.87 36 35.446 36h179.594v180c0 59.551-47.703 108-106.338 108h-463.163v-218.582zM578.954 198.582c-120.082 17.522-212.677 122.686-212.677 249.418s92.595 231.895 212.677 249.418v218.582h-463.163c-58.635 0-106.338-48.449-106.338-108v-180h179.594c19.576 0 35.446-16.118 35.446-36v-288c0-19.882-15.87-36-35.446-36h-179.594v-180c0-59.551 47.703-108 106.338-108h463.163v218.582zM153.6 556v-216h-144.148v216zM437.169 448c0-86.928 60.986-159.653 141.785-176.378v352.757c-80.798-16.726-141.785-89.45-141.785-176.378z" />
<glyph unicode="&#xe90b;" glyph-name="10" horiz-adv-x="1536" d="M1186.992 148.884c-50.897 27.846-100.885 54.793-152.691 82.639-4.544-35.93-8.18-70.063-12.724-104.196-3.636-34.133-7.271-68.267-11.815-101.502-2.727-20.66-19.995-33.235-40.899-29.642-17.269 2.695-33.628 6.288-50.897 8.982-16.36 2.695-32.72 5.389-52.715 8.982 14.542-19.761 27.266-37.726 39.082-55.691 3.636-4.491 4.544-10.779 6.362-16.168-5.453-1.796-11.815-2.695-17.269-4.491-0.909 0-1.818 0-2.727 0-23.631-4.491-39.991 3.593-47.262 26.947-1.818 4.491-5.453 9.881-9.998 11.677-29.993 17.067-59.077 32.337-89.979 49.404-1.818-22.456-10.907-26.947-29.084-14.372-14.542 8.982-29.084 17.965-28.175 39.523 0 3.593-6.362 8.982-10.907 11.677-23.631 13.474-47.262 26.049-71.801 38.625-9.998 4.491-16.36 10.779-16.36 21.558-0.909 10.779-7.271 14.372-16.36 17.965-32.72 10.779-64.53 21.558-96.341 33.235-22.722 8.084-27.266 22.456-13.633 41.319 19.995 27.846 40.899 54.793 61.804 83.537-6.362 3.593-11.815 6.288-17.269 9.881-35.446 19.761-67.257 44.912-89.979 79.046-14.542 21.558-9.089 41.319-19.995 37.726l-274.48-118.568c-4.544 14.372-9.089 28.744-14.542 44.014l-33.628-8.982-16.36 50.302-33.628-9.881c-4.544 16.168-11.815 36.828-17.269 52.996 0 0 308.109 98.807 388.090 124.856 6.362 1.796 12.724 7.186 17.269 11.677 37.264 47.607 86.343 69.165 146.329 64.674 94.523-7.186 189.046-16.168 283.569-24.253 2.727 0 5.453 0 12.724-0.898-5.453 3.593-8.18 5.389-11.815 7.186-29.993 14.372-59.077 28.744-89.070 43.116-46.353 23.354-57.259 71.86-24.54 113.179 13.633 17.067 31.811 28.744 52.715 35.93 54.533 18.863 109.974 35.93 163.598 55.691 49.988 18.863 64.53 0.898 78.163-38.625 11.815-33.235 25.449-66.47 37.264-99.705 2.727-7.186 6.362-10.779 14.542-11.677 22.722-1.796 45.444-6.288 67.257-8.084 7.271-0.898 16.36 2.695 21.813 7.186 32.72 27.846 74.528 104.196 151.782 104.196 5.453 0 11.815 2.695 16.36 6.288 7.271 6.288 13.633 14.372 21.813 23.354 3.636-15.27 5.453-28.744 9.089-41.319 1.818-7.186 6.362-15.27 11.815-18.863l148.147-167.972c13.633-20.66 10.907-44.014-5.453-61.979-4.544-5.389-9.089-9.881-13.633-15.27-16.36-17.067-32.72-20.66-54.533-10.779-37.264 16.168-74.528 33.235-112.701 49.404-4.544 1.796-9.089 3.593-14.542 6.288-56.35-113.179-112.701-226.358-169.051-339.537 28.175-26.049 55.441-52.098 82.708-77.249 20.904-19.761 21.813-32.337 1.818-52.996-29.993-31.439-59.986-61.979-89.979-93.418-11.815-12.575-25.449-20.66-43.626-22.456-19.995-1.796-39.991-5.389-59.986-8.084-16.36-1.796-19.995 4.491-15.451 20.66 7.271 25.151 22.722 37.726 49.079 35.032 20.904-1.796 34.537 7.186 47.262 23.354 19.086 26.049 40.899 49.404 62.712 74.554zM944.322 56.365c0 4.491 0 8.084 0 11.677-5.453 55.691-10.907 111.382-18.178 167.074-0.909 4.491-7.271 9.881-11.815 10.779-57.259 12.575-115.427 22.456-171.778 38.625-36.355 9.881-86.343 1.796-86.343-44.014 26.357-106.891 40.899-132.042 99.067-148.211 0.909 0.898 142.693-29.642 189.046-35.93zM978.859 718.372c-26.357-8.084-50.897-16.168-78.163-25.151 16.36-10.779 30.902-19.761 46.353-27.846 24.54-13.474 40.899-30.54 31.811-61.081 10.907-0.898 20.904-2.695 29.993-2.695 7.271 0 16.36-1.796 20.904 1.796 16.36 12.575 30.902 26.049 49.988 42.218-16.36 0.898-29.084 1.796-40.899 2.695-25.449 1.796-39.082 11.677-46.353 35.032-5.453 10.779-9.089 22.456-13.633 35.032zM1185.174 875.565c-0.909-42.218-34.537-74.554-77.254-73.656-41.808 0.898-74.528 35.032-74.528 75.453 0.909 41.319 36.355 75.453 78.163 74.554s74.528-35.032 73.619-76.351z" />
<glyph unicode="&#xe90c;" glyph-name="11" horiz-adv-x="981" d="M88.022-62.020c46.88 0 102.418 36.244 169.866 110.837 39.286 43.512 95.365 68.463 150.454 68.463h162.748c55.090 0 111.168-24.951 150.454-68.463 67.448-74.591 122.986-110.837 169.866-110.837 30.88 0 56.014 18.444 70.727 51.917 11.040 25.068 17.289 59.065 17.289 100.974 0 173.259-107.637 506.535-272.403 506.535-49.767 0-72.996-16.517-93.508-31.081-16.059-11.411-31.707-22.088-61.587-27.746 12.964 21.215 23.871 46.708 23.871 73.768 0 63.998-60.301 120.818-67.14 127.034-12.358 11.352-47.636 52.8-47.636 84.141s35.278 70.797 47.636 82.149c11.853 10.885 13.031 29.766 2.579 42.139-10.424 12.461-28.526 13.629-40.407 2.801-6.894-6.273-67.196-63.094-67.196-127.092s60.301-122.81 67.14-129.026c12.358-11.352 47.636-50.808 47.636-82.149 0-26.439-24.998-58.464-40.271-74.708h-44.411c-35.644 5.837-51.28 16.926-67.811 28.686-20.512 14.563-43.741 31.081-93.508 31.081-164.766 0-272.405-333.276-272.405-506.535 0-137.977 61.759-152.889 88.016-152.889v0zM719.268 238.805c-15.847 0-28.694 13.38-28.694 29.883s12.847 29.883 28.694 29.883c15.847 0 28.694-13.38 28.694-29.883s-12.847-29.883-28.694-29.883zM776.656 358.338c15.847 0 28.694-13.38 28.694-29.883s-12.847-29.883-28.694-29.883c-15.847 0-28.694 13.38-28.694 29.883s12.849 29.883 28.694 29.883zM719.268 418.105c15.847 0 28.694-13.38 28.694-29.883s-12.847-29.883-28.694-29.883c-15.847 0-28.694 13.38-28.694 29.883s12.849 29.883 28.694 29.883zM661.88 358.338c15.847 0 28.694-13.38 28.694-29.883s-12.847-29.883-28.694-29.883c-15.847 0-28.694 13.38-28.694 29.883s12.849 29.883 28.694 29.883zM432.328 358.338h114.776c15.86 0 28.694-13.366 28.694-29.883s-12.834-29.883-28.694-29.883h-114.776c-15.86 0-28.694 13.366-28.694 29.883s12.834 29.883 28.694 29.883zM202.776 358.338h28.694v29.883c0 16.517 12.834 29.883 28.694 29.883s28.694-13.366 28.694-29.883v-29.883h28.694c15.86 0 28.694-13.366 28.694-29.883s-12.834-29.883-28.694-29.883h-28.694v-29.883c0-16.517-12.834-29.883-28.694-29.883s-28.694 13.366-28.694 29.883v29.883h-28.694c-15.86 0-28.694 13.366-28.694 29.883s12.834 29.883 28.694 29.883z" />
<glyph unicode="&#xe90d;" glyph-name="12" horiz-adv-x="1536" d="M1534.521 809.939c-16.438-25.195-31.516-41.102-58.918-43.755s-2.741-13.262-43.847-3.982c-41.098 9.287-94.534 27.847-127.417-13.255s-56.177-63.645-47.954-106.077c8.215-42.432 21.919-60.992 8.215-103.424-13.697-42.432-12.33-54.365-36.991-99.442-24.66-45.085-32.883-110.059-35.624-140.552-2.741-30.5-28.776-176.349-30.142-226.738-1.374-50.382 23.294-79.559 35.624-82.212 12.33-2.645 38.365 2.652 43.839-10.602 1.328-1.278 17.897-14.734 16.608-33.033h-126.853c-2.949 6.635-6.501 14.122-11.697 15.795-8.215 2.652-23.286 84.857-41.098 100.772-5.482 5.305-13.704 163.086-15.071 188.281-1.374 25.195-19.186 62.449-23.294 86.314-11.357-10.984-205.722 31.942-249.568 54.664-44.657 23.148-85.809 51.832-134.304 67.395-20.321 6.523-96.997 35.655-116.229 17.036-2.741 0 19.179-15.915 1.367-31.165-17.812-15.242-57.543 5.977-57.543 5.977s47.954-29.17-16.445-124.644c-64.392-95.467-115.087-147.179-119.202-236.018-4.107-88.832 19.186-92.814 31.516-98.119 12.33-5.297 49.328-14.585 47.954-42.425-0.811-1.315-3.166-2.623-6.516-3.863h-78.783c-14.33 8.010-27.532 20.159-35.269 21.1-4.115 3.975-20.561 151.154-17.82 184.306 2.741 33.145 4.115 60.992 10.964 71.595 6.856 10.61 28.776 83.534 23.294 102.102 1.367-6.627-58.918-88.839-108.238-125.967-49.328-37.127-63.033-46.407-76.73-91.492-13.704-45.077-26.035-108.722-26.035-108.722s53.436-7.957 53.436-30.5c0-22.542-30.142-13.262-43.847-13.262-13.697 0-42.472-1.89-42.472-1.89s-8.223 23.865-16.445 22.826c2.741-2.369 6.856 124.921 32.891 179.285-1.374-1.323-76.73-84.857-91.801-76.907-15.071 7.957 12.33 42.432 71.248 95.467 58.91 53.042 113.72 131.272 113.72 165.746s-27.316 214.709 61.659 295.688c224.514 204.331 748.095 66.297 797.415 125.959 49.328 59.67 169.905 182.984 190.45 179.009 4.115 0 16.445 21.212 64.399 18.56s75.363-15.907 76.73-26.517c-1.367 2.652 15.071-3.982 13.704-19.89-1.374-15.915 23.294-21.212 27.401-25.195 4.107-3.975 130.166-53.035 113.72-78.229z" />
<glyph unicode="&#xe90e;" glyph-name="13" horiz-adv-x="1170" d="M1170.286 668.479c0-31.267-25.598-56.632-57.168-56.632-14.467 0-27.635 5.386-37.709 14.177l-0.051-0.025-79.353 68.5c-7.807-4.276-16.785-6.735-26.362-6.735-17.269 0-32.64 7.984-42.663 20.382-11.513-15.085-31.43-47.046-36.435-92.755 9.781-20.054 31.341-72.511 36.219-151.745 2.063-23.712-8.902-52.785-29.546-79.297-2.802-12.588-5.616-24.305-8.431-35.202l61.816-56.682c0 0 32.984-18.528 29.253-69.068-3.731-50.552 2.343-117.955 2.343-117.955s-7.692-18.402-28.081-33.575c-5.336-4.44-11.296-2.762-11.296-2.762-12.328 3.128-26.769-13.471-27.521-25.478-0.548-8.665-12.519-14.782-19.154-17.582l-29.647-28.404-16.428 72.259c0 0-4.572 17.973 24.859 28.644l-1.324 5.84c0 0 4.929 3.91 21.688 6.849 6.393 1.123 10.978 0.467 14.709-0.593-2.649 8.968-4.317 20.42 0.981 27.761 27.954 38.532 4.215 35.556 6.355 78.856 0 0-16.989 2.472-22.719 23.725 0 0-14.977 4.73-37.671 12.461-14.938-33.903-26.667-47.513-30.31-54.803-6.737-13.433-14.2-31.393-14.2-31.393s-0.115-75.248 9.628-95.429c9.742-20.206 10.099-37.057 4.304-48.244-5.82-11.276-1.019-26.966 10.621-30.321 8.405-2.434 11.831-15.35 13.066-22.363l21.484-34.888h-74.793c0 0-18.682-0.491-22.732 30.297h-6.049c0 0-2.764 5.6-1.987 22.451 0.79 16.826 10.787 19.083 9.972 28.076-0.79 8.993-7.628 8.993-14.582 23.548-6.966 14.618 2.509 25.869 2.509 25.869s-19.128 109.997-21.701 127.957c-2.585 17.986-12.875 32.516-5.183 58.385-1.337 15.249-4.024 32.39-7.208 49.341-9.22 4.036-18.135 8.135-26.566 12.247-7.692 1.778-15.473 4.011-23.356 6.874-139.603 50.376-228.354 62.131-254.384 64.439-6.164 0.568-13.69 0.177-21.892-0.782-23.471-138.792-54.927-172.746-60.836-186.014-6.024-13.433-12.544-31.393-12.544-31.393s3.871-75.248 14.671-95.429c10.812-20.206 12.060-37.057 6.864-48.244-5.209-11.276 0.42-26.966 12.226-30.321 8.52-2.434 12.633-15.35 14.251-22.363l23.344-34.887h-74.819c0 0-18.657-0.492-24.35 30.296h-6.024c0 0-3.056 5.6-3.184 22.451-0.115 16.826 9.768 19.083 8.494 28.076s-8.074 8.993-15.817 23.548c-7.73 14.618 1.146 25.869 1.146 25.869s-24.948 109.997-28.476 127.957c-0.79 4.036-2.738 8.4-5.030 12.878-5.731-3.544-9.577-6.231-10.838-8.4-7.934-13.445-17.001-31.406-17.001-31.406s-6.801-75.236 1.133-95.429c7.934-20.193 6.788-37.057 0-48.257-6.801-11.263-3.4-26.954 7.934-30.309 8.176-2.434 10.443-15.362 11.092-22.363l18.377-34.887h-74.806c0 0-18.733-0.492-20.045 30.283h-6.024c0 0-2.254 5.613 0 22.463 2.267 16.826 12.468 19.071 12.468 28.064s-6.801 8.993-12.468 23.548c-5.667 14.631 4.801 25.869 4.801 25.869s-9.322 110.009-10.303 127.97c-0.993 17.999-23.968 42.682 0 58.385 53.424 29.186 22.732 139.801 22.732 139.801-1.91 4.705-3.477 9.081-4.903 13.344-9.067 24.784-16.976 58.738-12.188 95.164-94.406-131.060-81.187-356.805-81.187-356.805l-25.98 31.797 7.297 149.311-15.613-142.437-47.989 47.866c-0.672 238.786 118.643 325.727 203.867 357.36 11.105 12.638 24.846 24.873 41.733 36.502 94.648 59.772 181.030 4.679 223.629 0 42.586-4.679 162.551 5.903 162.551 5.903s47.948 45.961 77.353 69.774c39.797 83.081 123.391 185.371 297.633 217.319 0 0 28.183 37.41 64.325 42.442l-21.446-60.844c0 0 28.947-1.715 45.745-41.559l69.84-165.909-0.025-0.025c3.247-7.088 5.081-14.934 5.081-23.182z" />
<glyph unicode="&#xe90f;" glyph-name="14" horiz-adv-x="1536" d="M1233.92 429.056c106.496 0 193.024-86.528 193.024-193.024s-86.528-193.024-193.024-193.024c-106.496 0-193.026 86.528-193.026 193.024-0.51 106.496 86.018 193.024 193.026 193.024zM1233.92 504.32c-148.48 0-268.288-120.32-268.288-268.288 0-148.48 120.32-268.8 268.288-268.8 148.48 0 268.8 120.32 268.8 268.8-0.512 148.48-120.832 268.288-268.8 268.288v0zM302.080 429.056c106.496 0 193.024-86.528 193.024-193.024s-86.528-193.024-193.024-193.024c-106.496 0-193.024 86.528-193.024 193.024s86.528 193.024 193.024 193.024zM302.080 504.32c-148.48 0-268.288-120.32-268.288-268.288 0-148.48 120.32-268.8 268.288-268.8 148.48 0 268.29 120.32 268.29 268.8 0.51 148.48-119.81 268.288-268.29 268.288v0zM851.968 195.072h-549.888v81.92h379.392l-202.752 202.752 43.52 43.52h-443.392l109.568 139.776h641.024l200.704 116.224 146.432-154.112zM1208.832 232.448l-55.296 379.904-291.84 260.096-114.176-34.304-14.848 48.128 141.312 42.496 326.656-290.816 57.856-398.336zM1168.896 605.184c-26.624-3.584-54.784 39.424-62.976 96.768s6.656 107.008 33.28 110.592c26.624 3.584 54.784-39.424 62.976-96.768s-6.656-106.496-33.28-110.592z" />
<glyph unicode="&#xe910;" glyph-name="15" d="M872.107 811.52c-94.933-43.093-183.893-91.733-266.24-146.133-31.147 32.64-63.147 63.787-96.64 93.44 47.36 56.96 84.267 120.32 108.16 185.813l1.28 3.84c97.707-20.48 185.173-69.12 253.44-136.96zM565.973 957.013c-21.76-57.173-55.040-113.493-96.64-164.053-52.48 44.16-107.947 84.907-166.4 122.24 63.787 28.587 134.613 44.8 209.067 44.8 18.133 0 36.267-0.853 53.973-2.987zM16 575.36c33.707 132.053 119.040 243.413 232.96 311.68 65.28-40.32 126.933-84.693 185.173-133.547-2.347-2.56-4.693-4.907-7.253-7.68-118.613-118.613-272-182.187-410.88-170.453zM561.28 635.307c-188.587-132.267-343.467-295.68-463.147-488.747-61.653 84.48-98.133 188.587-98.133 301.44 0 25.6 1.92 50.773 5.547 75.307 11.307-0.853 24.533-2.133 43.093-2.133 143.787 0 296.107 68.267 415.573 187.307 3.413 3.413 6.827 7.253 9.813 10.667 30.293-26.88 59.307-54.613 87.253-83.84zM1021.653 496c-78.080 0-158.933-20.053-234.667-56.96-44.587 66.347-93.227 128.853-145.067 187.307 82.987 53.76 171.947 101.973 267.307 144.213 62.293-76.373 102.827-171.093 112.427-274.56zM1024 443.52c-0.853-102.4-32-197.547-84.48-277.333-36.907 80.427-78.080 156.373-123.093 228.053 67.413 31.787 138.027 49.28 205.227 49.28h2.347zM133.547 103.040c118.187 195.84 273.28 360.96 464 493.653 51.413-56.747 98.773-117.76 142.72-183.040-47.787-28.373-93.227-63.573-134.827-104.96-104.533-104.96-170.24-234.24-184.107-364.587-113.067 20.053-213.333 77.44-287.787 158.933zM642.773 271.36c38.613 38.827 81.493 71.68 126.72 98.133 49.92-78.293 94.507-161.92 133.973-251.307-93.867-111.36-234.453-182.187-391.467-182.187-13.227 0-26.24 0.427-39.040 1.493 13.013 117.333 74.667 238.72 169.813 333.867z" />
<glyph unicode="&#xe911;" glyph-name="16" horiz-adv-x="1536" d="M1233.92 429.056c106.496 0 193.024-86.528 193.024-193.024s-86.528-193.024-193.024-193.024c-106.496 0-193.026 86.528-193.026 193.024-0.51 106.496 86.018 193.024 193.026 193.024zM1233.92 504.32c-148.48 0-268.288-120.32-268.288-268.288 0-148.48 120.32-268.8 268.288-268.8 148.48 0 268.8 120.32 268.8 268.8-0.512 148.48-120.832 268.288-268.8 268.288v0zM302.080 429.056c106.496 0 193.024-86.528 193.024-193.024s-86.528-193.024-193.024-193.024c-106.496 0-193.024 86.528-193.024 193.024s86.528 193.024 193.024 193.024zM302.080 504.32c-148.48 0-268.288-120.32-268.288-268.288 0-148.48 120.32-268.8 268.288-268.8 148.48 0 268.29 120.32 268.29 268.8 0.51 148.48-119.81 268.288-268.29 268.288v0zM851.968 195.072h-549.888v81.92h379.392l-202.752 202.752 43.52 43.52h-443.392l109.568 139.776h641.024l200.704 116.224 146.432-154.112zM1208.832 232.448l-55.296 379.904-291.84 260.096-114.176-34.304-14.848 48.128 141.312 42.496 326.656-290.816 57.856-398.336zM1168.896 605.184c-26.624-3.584-54.784 39.424-62.976 96.768s6.656 107.008 33.28 110.592c26.624 3.584 54.784-39.424 62.976-96.768s-6.656-106.496-33.28-110.592z" />
<glyph unicode="&#xe912;" glyph-name="17" horiz-adv-x="768" d="M750.416 635.014c-85.312 67.008-169.344 133.952-254.336 200.96-36.864 28.352-54.784 64.384-47.296 110.976 1.28 11.584-5.184 15.488-17.92 11.584-29.312-8.96-53.504-25.792-67.52-52.864-19.2-38.656-49.6-52.864-88-51.584-57.408 2.624-92.992-28.416-123.584-72.32-33.28-46.592-49.6-100.736-62.336-154.944-14.016-58.112-20.544-116.288-22.848-175.424-2.624-45.248-1.28-89.152-2.624-134.144 0-2.624 0-3.968 0-5.248v-120h563.264v90.496c0 0 4.544 38.080-23.616 65.984s-58.048 54.016-58.048 54.016c-14.4 11.776-27.52 25.216-38.848 39.872l-103.872 134.4c6.464-5.248 12.736-10.24 19.2-15.488 31.936-24.448 66.24-34.752 105.664-24.448 22.848 5.248 45.952 2.624 66.24-10.24 11.328-7.552 23.872-14.080 36.48-20.608 29.632-15.36 66.112-8.32 87.424 17.28 13.12 15.744 26.24 31.488 39.36 46.976 16.704 19.776 13.632 48.768-6.784 64.768zM700.624-17.722l-64 128.064c-5.44 10.816-16.512 17.664-28.608 17.664h-512c-12.096 0-23.168-6.848-28.608-17.664l-64-128c-4.992-9.92-4.416-21.696 1.408-31.104s16.128-15.232 27.2-15.232h640c11.072 0 21.376 5.76 27.264 15.168 5.824 9.408 6.336 21.184 1.344 31.104z" />
<glyph unicode="&#xe913;" glyph-name="18" d="M538.021 428.736c-17.119-238.976-146.21-379.712-235.316-448.832 42.094-18.88 87.19-32 134.394-38.912l19.354 15.744c117.147 95.168 258.886 264.448 291.654 531.136-65.217-4.736-135.799-22.528-210.086-59.136zM1002.203 589.568l-25.869 15.936c-92.427 57.088-334.451 171.904-629.043 49.024 37.239-59.008 90-116.608 164.415-166.912 213.471 104.384 401.775 62.528 507.042 20.288-3.322 27.968-8.943 55.232-16.544 81.664zM511.257 959.936c-89.745 0-174.060-23.36-247.389-64.128l0.256-2.304c5.94-54.080 21.27-117.888 51.994-182.72 283.542 121.216 523.266 40.192 647.248-24.384-85.657 162.624-255.884 273.536-452.109 273.536zM205.040 857.152c-41.519-31.232-78.119-68.48-108.46-110.72l2.747-17.856c23.251-150.208 96.196-361.088 307.304-530.112 34.876 62.976 61.384 141.056 67.963 237.056-184.663 125.504-249.688 292.288-269.554 421.632zM47.012 661.248c-29.894-65.152-47.012-137.408-47.012-213.76 0-183.36 96.388-343.744 240.81-434.304l6.132 4.416c36.153 25.92 83.166 67.84 125.451 126.464-205.359 161.984-291.079 360.576-325.38 517.184zM1013.445 440.64c-53.655 23.808-122.257 44.288-200.824 48.192-30.341-268.16-162.562-445.184-282.903-552.832 270.192 9.664 486.729 228.992 492.35 500.864l-8.623 3.776z" />
<glyph unicode="&#xe914;" glyph-name="19" d="M1007.41 892.564l-128.532 64.268c-7.12 3.56-15.356 4.142-22.902 1.628-7.548-2.516-13.788-7.928-17.346-15.044l-345.174-690.35h-334.956c-0.006 0-0.004 0-0.010 0-86.156 0-158.49-69.622-158.49-158.564 0-87.398 71.104-158.502 158.5-158.502h385.63c11.364 0 21.752 6.42 26.832 16.584l449.864 899.732c7.41 14.82 1.404 32.84-13.416 40.248v0zM282.8 450.132c122.23 0 222.798 52.158 222.798 126.4v41.772c-10.824-8.942-23.030-17.2-36.56-24.672-50.022-27.618-116.162-42.832-186.238-42.832-69.968 0-136.046 15.174-186.058 42.726-13.602 7.494-25.87 15.78-36.742 24.76v-41.754c0-74.452 100.918-126.4 222.8-126.4v0zM282.8 610.8c122.23 0 222.798 52.156 222.798 126.398 0 74.452-100.918 126.4-222.798 126.4-122.23 0-222.8-52.156-222.8-126.398 0-74.454 100.918-126.4 222.8-126.4z" />
<glyph unicode="&#xe915;" glyph-name="20" horiz-adv-x="1069" d="M786.342 332.514l49.572 111.952c-8.998 0.558-17.964 1.671-26.855 3.879-51.746 12.887-90.424 53.291-117.273 96.9h-51.105c6.512-22.493 2.804-46.583-10.15-66.048l-101.289-153.357c-15.027-22.697-40.3-36.239-67.686-36.239-15.794 0-31.092 4.556-44.327 13.158-37.287 24.298-47.681 74.186-23.208 111.171l49.783 75.416-57.351 26.262c-14.245 6.521-25.905 16.827-34.132 29.64h-33.509c-35.082 0-66.803-13.18-91.526-34.224-34.451 23.55-161.163 98.601-202.169-39.858-42.92-144.788 55.849-169.416-19.183-235.045-3.955-3.478-4.903-9.231-2.275-13.785 2.664-4.536 8.155-6.604 13.163-4.916 35.609 11.958 83.292 48.996 100.384 159.193 11.511 74.427 48.42 100.567 79.796 98.254-12.051-20.649-19.476-44.301-19.476-69.888 0-38.639 15.757-73.626 41.216-98.985l-56.859-86.248c-4.069-6.17-6.239-13.642-5.819-21.552l12.988-234.474c0.669-11.678 9.28-21.866 21.364-24.055 14.175-2.59 27.797 6.745 30.388 20.823l25.977 140.735 41.629-143.293c3.297-11.242 13.974-19.256 26.267-18.697 14.422 0.64 25.555 12.739 24.921 27.043l-9.483 209.931 61.553 88.509h198.73l41.111-81.64-33.264-213.845c-1.967-12.616 5.069-25.377 17.577-30.171 14.422-5.528 30.635 1.597 36.196 15.918l68.344 175.623 33.858-171.798c2.522-12.83 14.254-22.161 27.733-21.415 14.774 0.833 26.049 13.366 25.203 28.019l-20.815 367.108zM569.83 825.967c37.147 0 67.299 29.932 67.299 66.866 0 36.938-30.152 66.868-67.299 66.868-37.252 0-67.358-29.93-67.358-66.868 0-36.933 30.107-66.866 67.358-66.866zM1050.237 678.519l-122.76 102.2 10.467 96.538c0.422 4.135-1.783 8.114-5.528 9.96-3.785 1.842-8.303 1.148-11.31-1.723l-56.328-53.5-40.136-89.201-63.615-94.746c18.278-45.781 44.821-88.852 74.268-96.137 15.018-3.716 33.887 2.089 55.214 15.818l24.017 54.283 60.779-26.978c-56.754-61.943-106.852-88.212-148.73-77.642-63.729 15.816-102.414 116.437-117.159 172.963 1.722 5.873 2.17 12.182-0.107 18.389-4.445 12.114-15.958 19.588-28.216 19.588-3.426 0-6.898-0.588-10.292-1.805l-79.090-28.646-26.75 58.589c0.009 0.024 0.020 0.050 0.028 0.074 4.796 12.531 4.324 26.448-1.302 38.634s-15.945 21.632-28.64 26.197l-5.55 1.996c-24.91 8.956-52.462-2.703-63.266-26.722-19.351-43.015-51.425-113.753-86.775-189.429-10.43-22.402-0.553-48.942 22.022-59.303l95.129-43.557-72.611-109.954c-13.657-20.654-7.84-48.356 12.916-61.896 7.604-4.938 16.179-7.316 24.65-7.316 14.64 0 29.027 7.053 37.709 20.176l101.3 153.34c7.204 10.863 18.25 48.245-16.482 63.939-22.585 10.205-78.62 36.142-78.62 36.142l29.624 78.614c14.809-32.432 19.712-46.599 37.536-46.599 16.978 0 46.143 13.017 106.474 35.215 17.050-57.899 58.476-163.176 138.683-183.148 8.893-2.209 17.892-3.319 27.067-3.319 51.296 0 107.318 34.853 167.017 103.105 6.651-0.31 13.338 0.575 19.675 2.974 12.084 4.588 21.812 13.746 27.067 25.463l4.799 10.635c8.854 19.732 3.494 42.919-13.168 56.786z" />
<glyph unicode="&#xe916;" glyph-name="21" d="M239.953 718.234c93.666 93.726 200.162 166.129 302.381 200.162 4.277 4.337 12.77 4.337 8.553 0 34.093-85.173 85.173-170.345 153.299-238.472 72.403-72.403 153.359-119.266 238.532-153.359 4.277-4.277 12.77-12.77 8.553-17.047-34.093-102.219-106.496-208.715-200.222-302.381-93.726-93.726-200.162-166.129-298.165-204.439-8.493 0-12.77 4.216-17.047 8.553-34.033 85.173-85.173 170.345-153.299 238.472-68.126 68.186-153.359 119.266-238.532 153.359-8.553 0-8.553 8.493-4.277 12.71 34.093 102.28 106.496 208.715 200.222 302.441zM674.37 939.719c-4.216 4.277 0 17.047 8.553 17.047 97.943 12.77 183.115-12.77 238.472-68.126 59.633-59.633 76.68-144.806 68.186-238.532 0-8.493-8.553-8.493-17.047-8.493-63.849 29.816-127.759 68.066-178.899 119.206-51.080 51.14-89.449 114.989-119.266 178.899zM5.698 288.033c68.126-25.48 136.312-68.066 191.608-123.482 51.14-51.14 89.51-115.049 119.266-178.899 4.277-4.216 0-17.047-8.493-17.047-97.943-12.77-183.115 12.83-238.532 68.186-59.573 59.633-80.896 149.022-63.849 251.241z" />
<glyph unicode="&#xe917;" glyph-name="22" d="M998.91 498.654l-151.232 33.856-445.952-342.72-45.632 45.632 457.344 351.424-13.696 120.768c-1.664 14.848-13.376 26.56-28.16 28.16l-129.088 14.656-343.68-457.792-45.632 45.696 347.264 462.656-14.72 130.624c-0.896 8.768-5.568 16.768-12.608 22.016s-16 7.424-24.704 5.888l-180.992-32c-11.584-2.048-21.056-10.176-24.832-21.312l-178.624-534.592-53.184-53.184 271.488-271.488 53.12 53.12 534.592 178.624c10.88 3.648 19.008 12.8 21.248 24.064l32 158.336c3.52 17.024-7.296 33.728-24.32 37.568zM65.534 273.118l-9.344-9.344c-74.816-74.88-74.816-196.608 0-271.488 36.224-36.288 84.48-56.256 135.744-56.256s99.52 20.032 135.744 56.256l9.344 9.344-271.488 271.488z" />
<glyph unicode="&#xe918;" glyph-name="23" horiz-adv-x="3379" d="M2987.213 255.427c0 72.597-21.468 140.609-59.633 197.922 186.85-67.248 241.712-178.054 246.483-187.224l137.553-27.51 62.813-103.928h-340.305c-19.878 0-42.936 0-67.584 0 13.517 38.209 20.673 78.71 20.673 120.74zM2599.201 574.854c182.874 0 332.354-143.666 332.354-319.427s-148.685-319.427-332.354-319.427c-183.669 0-332.354 143.666-332.354 319.427s149.48 319.427 332.354 319.427zM2599.201 149.97c60.428 0 109.725 47.379 109.725 105.457s-49.297 105.457-109.725 105.457c-60.428 0-109.725-47.379-109.725-105.457s49.297-105.457 109.725-105.457zM789.54 574.854c182.874 0 332.354-143.666 332.354-319.427s-149.48-319.427-332.354-319.427c-182.874 0-332.354 143.666-332.354 319.427s148.685 319.427 332.354 319.427zM789.54 149.97c60.428 0 109.725 47.379 109.725 105.457s-49.297 105.457-109.725 105.457c-60.428 0-109.725-47.379-109.725-105.457s49.297-105.457 109.725-105.457zM1408.342 904.182c-91.94-28.596-144.035-123.914-116.359-212.898s124.645-137.94 216.585-109.344c91.94 28.596 144.035 123.914 116.359 212.898s-124.645 137.94-216.585 109.344zM90.642 851.487l260.795 61.899c28.624 6.878 61.223 1.528 80.306-12.227l65.994-47.379-144.709-55.785 55.657-37.445c173.333 68.776 368.134 78.71 549.418 28.275l210.703-65.719c0 0 23.853-63.427 96.208-156.657 313.272-155.893 629.724 14.519 629.724 14.519s123.241-19.104 443.669-49.672c-77.92-68.012-127.217-166.591-127.217-275.869 0-42.030 7.156-82.531 20.673-120.74-344.281 0-735.473 0-1075.778 0 13.517 37.445 20.673 77.946 20.673 119.976 0 205.564-174.128 372.919-388.012 372.919s-388.012-167.355-388.012-372.919c0-42.030 7.156-82.531 20.673-120.74-58.838 0-100.183 0-120.061-0.764-190.030 55.021 11.131 457.743 11.131 457.743l-118.471 145.958-128.012-49.672-46.911 59.606c-30.214 41.266 1.59 88.645 71.56 104.693z" />
<glyph unicode="&#xe919;" glyph-name="24" d="M719.539 821.357l-24.206-66.189c-20.483 3.893-41.136 11.173-61.957 23.36l-42.15-115.618h-36.058c8.634 23.362 28.438 77.869 72.96 200.429 27.422-24.546 58.909-36.395 91.411-41.982zM754.686 918.139c-31.867 5.277-63.52 16.715-91.416 41.861l-22.413-61.581c25.597-28.080 56.525-39.891 90.421-44.595l23.408 64.315zM874.899 850.381l23.123 63.534c-35.957 1.603-67.142-1.555-108.627 0.584l-23.082-63.419c36.198-1.042 72.36 1.782 108.586-0.699zM754.184 817.75l-24.355-66.923c36.773-2.123 73.346 2.202 109.421 1.597l23.563 64.742c-36.552 1.501-70.238-1.546-108.629 0.584zM897.555 813.619l-23.302-64.030c32.56-5.242 63.274-19.131 87.336-53.413l21.371 58.714c-21.318 37.030-50.728 52.552-85.405 58.73zM932.766 910.368l-23.454-64.445c33.037-6.682 63.483-21.099 87.971-51.677l20.973 57.622c-20.522 35.784-48.333 51.91-85.49 58.499zM383.142 898.419l-22.413 61.581c-27.901-25.146-59.55-36.589-91.413-41.867l23.413-64.328c33.891 4.71 64.819 16.536 90.413 44.614zM257.693 851.062l-23.086 63.432c-44.712-2.302-69.963 1.146-108.63-0.579l23.112-63.504c36.342 2.485 72.222-0.392 108.605 0.651zM91.234 910.368c-37.157-6.589-64.968-22.715-85.491-58.499l20.973-57.621c24.491 30.587 54.931 45.018 87.963 51.704l-23.445 64.416zM161.184 817.174l23.566-64.75c36.074 0.605 72.744-3.704 109.419-1.59l-24.354 66.914c-38.621-2.139-72.326 0.917-108.632-0.573zM41.042 754.891l21.371-58.715c24.061 34.282 54.774 48.171 87.336 53.413l-23.306 64.037c-34.68-6.178-64.088-21.706-85.402-58.734zM469.171 662.91h-36.056l-42.152 115.787c-20.821-12.357-41.811-19.637-62.296-23.53l-24.206 66.189c32.502 5.587 63.989 17.437 91.413 41.981 44.69-122.558 64.666-177.066 73.298-200.427zM160.592 18.378h702.816v-82.378h-702.816v82.378zM863.408 546.64v0h-702.816c0 45.496 36.882 82.378 82.378 82.378h538.061c45.496 0 82.378-36.882 82.378-82.378zM270.266 100.726h483.469v-48.414h-483.469v48.414zM339.333 512.758v-378.174h87.518v378.174h-87.518zM460.707 512.758v-378.174h102.586v378.174h-102.586zM597.149 512.758v-378.174h87.518v378.174h-87.518z" />
<glyph unicode="&#xe91a;" glyph-name="25" horiz-adv-x="1069" d="M1033.111 948.486v0c-19.051 16.65-48.042 14.985-65.437-3.33l-2.485-2.498-707.378-776.741c-9.111-8.325-20.708-13.32-33.132-13.32-13.253 0-25.678 4.995-34.789 14.153-19.051 19.148-19.051 50.784 0 69.932l12.425 12.488c13.253 13.32 13.253 34.966-0.828 48.286-1.657 1.665-3.313 2.498-4.142 4.163l-59.638 40.793c-13.253 9.158-31.476 7.493-42.244-4.163l-1.657-1.665-34.789-34.133c-78.69-80.754-78.69-210.628 0-291.382 38.931-39.128 91.114-60.774 144.954-60.774h3.313c49.699 0 97.741 19.98 134.186 54.946 2.485 2.498 4.97 4.995 8.283 8.325 176.43 188.15 606.324 758.426 690.812 870.816 14.081 19.148 11.596 47.454-7.455 64.104zM272.722 31.049c-21.536-9.158-44.729-14.153-67.922-14.153-22.364 0-43.901 4.163-64.608 12.488-8.283 3.33-12.425 13.32-9.111 21.646s13.253 12.488 21.536 9.158c34.789-14.153 72.891-13.32 107.68 1.665 8.283 3.33 18.223 0 21.536-8.325s0-18.315-9.111-22.478v0zM465.718 394.86c0.828 0.833 1.657 1.665 2.485 2.498l-2.485-2.498zM397.797 319.933v0c0.828 1.665 1.657 2.498 2.485 3.33l-2.485-3.33zM488.083 225.858l-74.548 60.774 22.364 24.976 72.891-59.941-20.708-25.808zM550.206 304.115l-69.578 56.611 22.364 24.976 67.922-55.779-20.708-25.808zM917.148 776.154l-1.657 0.833-30.648 26.641 22.364 24.976 28.991-26.641-19.051-25.808zM966.018 841.091l-26.506 23.311 22.364 24.976 24.021-20.813-19.879-27.473zM919.633 228.356c-77.861 0-140.813-63.272-140.813-142.361s62.952-142.361 140.813-142.361c77.861 0 140.813 63.272 140.813 142.361s-62.952 142.361-140.813 142.361zM936.199 125.956c-20.708 0-39.759-11.655-49.699-30.803-4.142-8.325-14.081-10.823-22.364-6.66-7.455 4.163-10.768 14.153-6.626 21.646 14.91 29.971 45.557 48.286 78.69 48.286 9.111 0 16.566-7.493 16.566-16.65 0-8.325-7.455-15.818-16.566-15.818z" />
<glyph unicode="&#xe91b;" glyph-name="26" horiz-adv-x="3584" d="M3504.965 73.483c36.899 118.912 27.073 219.104-29.223 298.080-107.134 150.016-345.255 169.216-390.711 171.477l-89.071 46.421-5.823 2.315c-98.907 27.317-471.379 38.304-527.179 39.819-87.99 41.984-161.082 81.28-225.792 116.043-226.465 121.739-376.122 202.219-804.569 202.219-518.842 0-942.283-217.547-999.076-248-31.010-2.261-58.414-4.309-84.318-6.293l-71.184 93.152 80.943-8.256c32.091-3.264 47.055 13.259 33.425 36.896-13.674 23.637-50.76 45.461-82.917 48.747l-264.124 26.923c-32.091 3.253-47.055-13.259-33.37-36.896 13.674-23.637 50.76-45.461 82.917-48.747l40.571-4.117 90.052-117.867c-152.436-14.027-152.436-22.816-152.436-46.624 0-195.531-25.838-240.597-31.23-249.269l-41.85 32.437v-202.869l24.79-30.827c-0.97-29.6 9.076-56.779 29.488-79.264 65.957-72.576 217.389-74.677 234.405-74.677 51.102 0 156.715 25.237 229.155 44.299-5.029 8.331-10.223 16.565-14.336 25.515-3.97 8.629-6.65 17.792-9.76 26.848-8.943 26.507-15.020 54.357-15.020 83.68 0 150.123 126.256 272.171 281.372 272.171s281.427-122.091 281.427-272.224c0-64.725-24.493-123.499-63.663-170.283-8.304-9.888-16.839-19.499-26.433-28.171-11.27-10.219-23.037-19.829-35.884-28.171 323.464-1.163 1236.91-5.483 1860.46-18.891-9.131 8.779-16.905 18.891-24.669 28.832-7.19 9.109-13.476 18.667-19.42 28.672-23.864 39.936-38.597 85.6-38.597 134.987 0 150.069 126.311 272.139 281.405 272.139s281.405-122.123 281.405-272.139c0-54.677-17.126-105.333-45.787-148.032-6.672-9.835-14.623-18.72-22.496-27.669-8.624-9.835-17.821-18.997-27.867-27.563 57.443-1.653 106.958-2.475 149.381-2.475 215.735 0 257.883 18.005 263.132 53.525 1.742 10.827 5.69 37.557-67.523 64.128zM575.315 94.133c40.119-57.376 108.005-95.168 184.78-95.168 2.514 0 4.852 0.661 7.311 0.779 28.407 0.885 55.613 6.507 80.403 16.789 17.358 7.232 33.039 17.067 47.772 28.117 52.734 39.488 87.417 100.576 87.417 169.952 0 118.869-99.977 215.637-222.892 215.637s-222.903-96.768-222.903-215.637c0-24.139 5.084-47.051 12.671-68.757 3.176-9.067 6.793-17.845 11.193-26.357 4.422-8.619 8.701-17.451 14.248-25.355zM2974.775-54.059c29.29 0 57.046 5.856 82.741 15.797 17.523 6.848 33.745 15.904 48.764 26.613 11.414 8.181 21.923 17.237 31.572 27.296 36.832 38.443 59.902 89.483 59.902 145.931 0 118.869-100.032 215.573-222.925 215.573s-222.936-96.704-222.936-215.573c0-52.032 19.982-99.2 51.852-136.544 9.021-10.549 18.957-20.16 29.863-28.939 14.457-11.605 30.095-21.589 47.342-29.387 28.551-12.928 60.178-20.768 93.824-20.768z" />
<glyph unicode="&#xe91c;" glyph-name="27" horiz-adv-x="981" d="M820.561 497.681l1.081-0.116 1.064 0.017 1.364-0.264c0.865-0.116 1.73-0.264 2.595-0.479 0.765-0.182 1.514-0.429 2.262-0.694 0.782-0.264 1.547-0.578 2.295-0.925 0.732-0.347 1.43-0.727 2.129-1.14l1.002-0.619 0.977-0.669c0.649-0.495 1.264-1.007 1.863-1.536 0.599-0.545 1.148-1.074 1.68-1.652s1.048-1.189 1.53-1.833l0.705-0.964 0.642-1.001c0.416-0.677 0.798-1.371 1.148-2.081 0.349-0.727 0.665-1.453 0.965-2.197 0.299-0.76 0.516-1.536 0.732-2.329 0.183-0.776 0.366-1.553 0.499-2.345 0.15-0.826 0.216-1.668 0.266-2.51 0.033-0.479 0.15-0.941 0.2-1.47 0-0.38-0.1-0.727-0.116-1.090v0l0.017-1.041-44.343-506.484c-1.114-12.899-12.009-22.627-24.816-22.627-0.732 0-1.464 0.033-2.196 0.099-7.967 0.677-14.67 5.103-18.712 11.297-0.931-1.404-1.547-2.94-2.778-4.162-4.873-4.839-11.26-7.251-17.647-7.251s-12.774 2.411-17.647 7.251v0l-49.266 48.921-49.233-48.904c-4.873-4.839-11.26-7.251-17.647-7.251s-12.774 2.411-17.647 7.251c-9.747 9.678-9.747 25.352 0 35.031v0l49.233 48.904-58.797 58.385-58.83-58.401 49.2-48.855c9.747-9.678 9.747-25.352 0-35.031-4.873-4.839-11.26-7.251-17.647-7.251s-12.774 2.411-17.647 7.251v0l-49.2 48.855-49.216-48.888c-4.873-4.839-11.26-7.251-17.647-7.251-1.563 0-3.060 0.595-4.607 0.892-1.381-0.363-2.778-0.661-4.241-0.793-0.732-0.066-1.464-0.099-2.196-0.099-12.791 0-23.685 9.728-24.816 22.627v0l-42.364 483.873h-284.853v-446.068c0-13.675-11.161-24.774-24.949-24.774s-24.949 11.099-24.949 24.774v0 469.719c0 0.189 0.002 0.378 0.006 0.567-0.004 0.179-0.006 0.367-0.006 0.557 0 13.682 11.092 24.774 24.774 24.774h795.787zM762.097 91.202l-58.797-58.385 49.266-48.921c0.050-0.050 0.067-0.132 0.133-0.198v0l9.398 107.503zM418.963 58.203l4.108-46.757 21.49 21.355-25.598 25.402zM479.872 184.617l-58.83-58.401 58.797-58.385 58.83 58.401-58.797 58.385zM668.022 184.65l-58.797-58.401 58.797-58.385 58.813 58.385-58.813 58.401zM573.947 278.066l-58.797-58.401 58.797-58.385 58.797 58.401-58.797 58.385zM762.113 278.066l-58.813-58.385 58.813-58.401 6.703 6.673 8.333 95.182-15.036 14.931zM401.049 262.904l6.969-79.558 36.575 36.319-43.545 43.239zM479.855 371.497l-58.813-58.401 58.83-58.401 58.797 58.401-58.813 58.401zM668.039 371.481l-58.813-58.385 58.797-58.385 58.813 58.385-58.797 58.385zM590.846 448.132h-33.814l-41.898-41.604 58.813-58.401 58.813 58.385-41.915 41.621zM793.35 448.149h-48.119l-41.898-41.621 58.797-58.385 24.616 24.444 6.603 75.545v0.017zM402.679 448.116h-17.847l8.133-92.854 51.611 51.266-41.898 41.588zM742.137 960c3.102 0 6.13-0.336 9.194-0.467-11.902-94.416-89.029-167.567-182.326-167.567-10.849 0-21.585 1.102-32.152 3.043 20.212 94.136 104.541 164.99 205.283 164.99zM532.831 738.774c11.921-1.867 23.992-2.819 36.176-2.819 121.068 0 221.265 93.165 237.83 213.813 68.102-21.975 120.842-77.632 138.591-147.067-1.861 0.037-3.704 0.187-5.547 0.187-149.008 0-274.043-99.215-301.908-232.129-59.584 33.98-100.724 96.097-105.142 168.015zM742.137 543.034c-17.637 0-34.69 2.408-51.067 6.497 18.107 112.265 123.117 197.328 248.81 197.328 3.986 0 7.972-0.224 11.958-0.392-2.726-112.601-95.647-203.433-209.702-203.433z" />
<glyph unicode="&#xe91d;" glyph-name="28" horiz-adv-x="853" d="M251.922 615.378l172.276-121.166c-1.776 23.791-4.618 46.539-8.099 68.649l-184.797 129.851-184.709-129.781c-3.552-22.111-6.34-44.876-8.099-68.649l172.276 121.219c12.347 8.682 28.857 8.633 41.151-0.124v0zM43.201 259.838c1.971-20.837 4.369-39.994 7.015-57.912l160.537 112.817c12.324 8.728 28.845 8.728 41.169 0l160.537-112.764c2.646 17.918 5.044 37.146 7.015 57.912l-188.172 132.133-188.101-132.186zM210.753 420.928c12.324 8.728 28.845 8.728 41.169 0l170.767-119.999c2.558 38.508 3.978 81.756 3.978 130.488 0 6.226-0.462 12.117-0.586 18.255l-194.779 136.927-194.779-136.945c-0.124-6.12-0.586-12.011-0.586-18.237 0-48.732 1.421-91.98 3.978-130.541l170.838 120.052zM251.922 721.509l154.782-108.731c-26.918 126.267-84.97 243.876-168.919 342.22-1.649 1.877-4.032 2.954-6.536 2.954s-4.887-1.077-6.536-2.954c-83.857-98.343-141.865-215.897-168.813-342.096l154.871 108.802c12.362 8.661 28.872 8.583 41.151-0.195zM18.177-63.862h816.98c9.809 0 17.76 7.919 17.76 17.689s-7.952 17.689-17.76 17.689c-255.466 0-317.805-0.407-312.584 0.159 8.868-0.101 17.587 2.277 25.167 6.863 57.597 44.274 128.639 119.15 217.157 354.372 58.055 150.933 65.642 316.499 21.632 472.071-1.087 3.638-4.384 6.18-8.193 6.316s-7.28-2.163-8.626-5.715l-319.048-834.067h-38.007l324.092 847.281c1.323 3.54 0.242 7.525-2.689 9.921s-7.066 2.674-10.294 0.692c-115.299-74.731-207.691-179.663-267.028-303.27 2.226-20.519 3.7-41.651 4.422-63.396 0.682-2.571 0.773-5.261 0.266-7.871 0.195-7.854 0.764-15.442 0.764-23.455 0-271.837-41.666-378.34-86.671-452.826-1.501-2.443-3.131-4.805-4.884-7.075h-70.953c18.509-0.054 35.711 9.497 45.396 25.206 30.34 51.341 50.93 107.806 60.741 166.573l-174.514 122.599-174.514-122.599c9.81-58.767 30.4-115.232 60.741-166.573 9.685-15.709 26.886-25.261 45.396-25.206h-144.748c-9.809 0-17.76-7.919-17.76-17.689s7.952-17.689 17.76-17.689z" />
<glyph unicode="&#xe91e;" glyph-name="29" horiz-adv-x="1638" d="M1304.099 606.314c-42.278 0-82.736-7.907-120.003-22.291-29.197 64.883-54.422 133.501-67.021 197.338-20.234 102.522-110.829 176.931-215.418 176.931-26.509 0-48-21.491-48-48s21.491-48 48-48c11.421 0 22.541-1.594 33.136-4.554 32.202-8.998 59.526-30.778 75.462-60.026-1.29-1.638-2.518-3.338-3.61-5.178l-90.355-152.112h-403.085l-22.912 57.667h9.51c26.509 0 48 21.491 48 48s-21.491 48-48 48h-165.501c-26.509 0-48-21.491-48-48s21.491-48 48-48h52.691l41.888-105.421c-30.003 8.864-61.741 13.648-94.579 13.648-184.336-0.003-334.304-149.971-334.304-334.304s149.968-334.304 334.301-334.304c168.035 0 307.491 124.63 330.842 286.304h88.15c16.934 0 32.618 8.925 41.267 23.485l252.246 424.659c14.797-45.792 33.318-91.674 53.283-135.507-79.19-61.19-130.291-157.053-130.291-264.64 0-184.333 149.968-334.301 334.301-334.301s334.301 149.968 334.301 334.301c0 184.333-149.968 334.304-334.301 334.304zM334.301 224.013h233.443c-22.272-108.47-118.48-190.301-233.443-190.301-131.398 0-238.301 106.902-238.301 238.301s106.902 238.301 238.301 238.301c114.963 0 211.171-81.83 233.443-190.301h-233.443c-26.509 0-48-21.491-48-48s21.491-48 48-48zM725.974 320.013h-60.832c-11.139 77.117-48.691 145.795-103.171 196.547-0.499 1.926-1.078 3.846-1.834 5.744l-8.787 22.115h307.92l-133.296-224.406zM1304.099 33.715c-131.402 0-238.301 106.902-238.301 238.301 0 69.61 30.010 132.336 77.763 175.946 59.034-112.819 116.694-196.922 121.034-203.213 9.315-13.494 24.301-20.736 39.546-20.736 9.402 0 18.902 2.758 27.226 8.502 21.818 15.059 27.296 44.954 12.237 66.771-1.034 1.498-59.12 86.205-117.286 197.93 24.397 8.451 50.55 13.104 77.782 13.104 131.398 0 238.301-106.902 238.301-238.301s-106.902-238.304-238.301-238.304z" />
<glyph unicode="&#xe91f;" glyph-name="30" d="M1022.547 588.164c0 43.574-14.388 79.774-41.577 104.67-24.851 22.742-58.666 34.768-97.792 34.768h-0.068c-45.433-0.017-106.956-32.557-167.733-74.774 42.219 60.778 74.759 122.3 74.774 167.733 0.022 39.149-12.005 72.987-34.768 97.862-24.898 27.188-61.096 41.577-104.67 41.577-46.503 0-104.829-32.090-139.438-61.072-34.611 28.981-92.938 61.072-139.438 61.072-84.676 0-139.417-54.74-139.438-139.417-0.026-45.402 32.515-106.934 74.75-167.731-60.769 42.215-122.272 74.75-167.661 74.75-0.022 0-0.046 0-0.046 0-84.698-0.022-139.44-54.762-139.44-139.438 0-46.503 32.093-104.829 61.074-139.438-28.984-34.609-61.074-92.936-61.074-139.438 0-84.698 54.74-139.438 139.438-139.438 45.415 0 106.934 32.533 167.707 74.75-42.215-60.775-74.75-122.292-74.75-167.707 0-84.698 54.74-139.438 139.438-139.438 46.503 0 104.829 32.090 139.438 61.072 34.609-28.981 92.936-61.072 139.438-61.072 84.676 0 139.417 54.74 139.438 139.417 0.011 22.057-7.841 47.995-20.565 75.73 55.801-58.272 116.862-129.549 163.544-204.229 4.403-7.059 11.983-10.918 19.722-10.918 4.198 0 8.464 1.137 12.301 3.543 10.872 6.787 14.183 21.129 7.375 32.023-52.984 84.785-122.355 164.162-183.246 226.448 34.515-17.924 67.018-29.62 93.781-29.613 0.022 0 0.046 0 0.046 0 84.698 0.022 139.44 54.762 139.44 139.438 0 46.503-32.093 104.829-61.074 139.438 28.984 34.607 61.074 92.933 61.074 139.434z" />
<glyph unicode="&#xe920;" glyph-name="31" horiz-adv-x="896" d="M98.254-55.211c12.287-11.719 32.221-11.719 44.508 0l163.426 155.758c23.615 22.516 37.951 53.047 37.951 84.875v119.984l21.189-21.203c36.877-35.148 96.664-35.148 133.541 0l44.508 42.43c36.877 35.141 36.877 92.125 0 127.273l-22.254 21.211 133.541 127.281c24.582 23.43 24.582 61.422 0 84.852l231.295 221.531c12.303 11.719 12.303 30.695 0 42.422s-32.213 11.727-44.516 0l-253.549-242.742c-0.008 0-0.008-0.008-0.008-0.008l-66.762-63.633-44.516 42.43-44.516-42.43 44.525-42.422-133.541-127.281-44.516 42.43-44.516-42.43 44.516-42.422-70.885-67.563c-9.393-8.961-11.533-22.461-5.828-33.906 11.115-22.289 7.016-49.82-12.311-68.242l-200.311-190.922c-12.295-11.711-12.295-30.703 0-42.422l89.033-84.852zM498.869 411.477c12.287-11.719 12.287-30.711 0-42.422l-44.516-42.43c-12.295-11.719-32.221-11.719-44.508 0l-22.262 21.211 89.025 84.852 22.262-21.211zM543.377 750.891c12.467 11.875 12.467 30.539 0 42.422l-44.508 42.43c-12.467 11.883-32.049 11.883-44.516 0l-66.77-63.641 89.025-84.852 66.77 63.641zM209.525 602.391l133.541 127.281 89.025-84.852-133.541-127.273zM98.254 496.328c-12.467-11.883-12.467-30.547 0-42.43l44.508-42.422c12.467-11.883 32.049-11.883 44.516 0l66.77 63.641-89.025 84.852-66.77-63.641zM365.328 793.313c-12.467 11.883-32.049 11.883-44.516 0-12.459-11.883-12.459-30.547 0-42.422l22.262-21.219 44.508 42.43-22.254 21.211zM187.27 623.609c-12.459 11.875-32.041 11.875-44.508 0-12.467-11.883-12.467-30.547 0-42.43l22.254-21.211 44.516 42.43-22.262 21.211z" />
<glyph unicode="&#xe921;" glyph-name="32" horiz-adv-x="1536" d="M1233.92 429.056c106.496 0 193.024-86.528 193.024-193.024s-86.528-193.024-193.024-193.024c-106.496 0-193.026 86.528-193.026 193.024-0.51 106.496 86.018 193.024 193.026 193.024zM1233.92 504.32c-148.48 0-268.288-120.32-268.288-268.288 0-148.48 120.32-268.8 268.288-268.8 148.48 0 268.8 120.32 268.8 268.8-0.512 148.48-120.832 268.288-268.8 268.288v0zM302.080 429.056c106.496 0 193.024-86.528 193.024-193.024s-86.528-193.024-193.024-193.024c-106.496 0-193.024 86.528-193.024 193.024s86.528 193.024 193.024 193.024zM302.080 504.32c-148.48 0-268.288-120.32-268.288-268.288 0-148.48 120.32-268.8 268.288-268.8 148.48 0 268.29 120.32 268.29 268.8 0.51 148.48-119.81 268.288-268.29 268.288v0zM851.968 195.072h-549.888v81.92h379.392l-202.752 202.752 43.52 43.52h-443.392l109.568 139.776h641.024l200.704 116.224 146.432-154.112zM1208.832 232.448l-55.296 379.904-291.84 260.096-114.176-34.304-14.848 48.128 141.312 42.496 326.656-290.816 57.856-398.336zM1168.896 605.184c-26.624-3.584-54.784 39.424-62.976 96.768s6.656 107.008 33.28 110.592c26.624 3.584 54.784-39.424 62.976-96.768s-6.656-106.496-33.28-110.592z" />
<glyph unicode="&#xe922;" glyph-name="33" horiz-adv-x="896" d="M893.867-19.465c-0.914-0.909-1.829-1.818-3.048-2.727-3.962-3.333-10.057-6.362-17.676-9.392-15.848-6.362-25.295-9.089-41.143-9.089-8.229 0-18.286 0.606-31.695 1.818-4.876 0.303-10.362 0.606-16.152 0.606-35.352 0-74.057-7.877-74.362-8.18l-0.61-0.303c-0.914-2.727-4.571-18.48 19.2-15.451 25.905 3.030 35.352 8.483 64 9.089 0 0 35.962-4.544 56.076 1.515s38.095 12.421 46.629 30.296c0.61 1.818 0 2.121-1.219 1.818zM46.019 48.095c-10.971 23.328-14.324 33.931-14.324 73.316 0 37.87-11.886 83.92-11.886 84.222v0c0 0 0 0 0 0.303 0 0-24.076 5.453-18.895-19.389 5.181-25.146 17.371-32.417 19.2-61.804 0.914-13.633-1.524-35.446 6.095-54.533s14.324-36.961 32.914-43.929c1.219-0.606 2.133 0 1.524 1.212-4.571 2.727-9.448 9.695-14.629 20.601zM889.295-3.711c-2.133 0.909-6.705 2.121-24.076 2.121-6.4 0-14.629-0.303-24.99-0.606 0 0-29.257 3.636-47.238 18.783-5.486 4.847-6.4 6.665-9.752 9.695-0.914 0.909-1.829 1.212-2.438 1.212-0.305 0-0.305 0-0.61 0-0.61-0.303-1.219-0.606-1.524-3.333-0.305-3.030-1.219-6.968-1.829-8.786-0.305-1.212-0.61-2.424-1.219-3.636-3.657 24.237-23.467 161.78-15.238 233.278 0 0 0.61 43.929-17.676 61.198 0 0-25.905 34.537-109.41 81.496l-44.8-81.799c25.6-16.663 57.295-35.143 93.867-52.412-5.486-4.241-7.010-66.045 10.362-99.37 19.505-37.264 25.295-105.127 31.39-144.511 0.305-1.212 0.305-2.121 0.61-3.030-0.61 0.606-1.219 1.515-2.133 2.424-2.438 2.727-4.571 4.241-6.4 4.241-2.438 0-3.962-3.030-4.267-9.089-0.61-8.483-2.438-32.114-2.438-48.17 0 0 39.010 8.18 74.971 8.18 5.486 0 10.971-0.303 16.152-0.606 13.714-1.212 23.467-1.818 31.695-1.818 15.238 0 23.771 2.424 39.924 8.786 7.619 3.030 13.105 6.059 16.762 9.089 7.619 6.665 7.619 13.33 0.305 16.663zM330.667 249.562c0 0-71.314 11.512-136.533-17.875-52.419-23.631-96.61-31.508-123.124-36.052 0.61 0.606 1.219 1.212 1.829 1.818 6.4 6.665 4.571 9.998-5.486 9.998 0 0 0 0 0 0-8.533 0-28.952 0-44.8-1.212 0 0 12.19-46.353 11.886-85.131 0-38.779 3.352-49.079 14.019-72.104 7.010-14.845 13.105-21.207 17.981-21.207 2.743 0 5.181 2.121 7.010 5.453 0.305 0.606 2.438 10.301-2.438 48.17 0 0 7.924 27.266 14.629 47.564 2.438 6.968 6.095 6.665 8.838 10.301 0.914 1.212 0.914 2.424 0.914 3.030-0.305 0.606-0.914 1.212-3.352 1.212-3.048 0-7.010 0.606-8.838 0.909-0.305 0-0.305 0-0.61 0 29.867 6.968 98.438 21.813 149.029 23.025 66.438 1.515 74.057 4.847 88.686 0.606 14.933-4.241 34.438-5.453 49.676 7.574 10.362 8.786 46.933 48.776 88.686 100.582l-75.886 59.077c-18.59-23.934-41.143-56.35-52.114-85.737zM629.943 389.832l4.876 9.392c0 0-27.429 31.508-51.505 46.050 0 0-5.486 11.512-7.314 17.875-2.743 8.483-4.876 21.51-4.876 22.116 3.657 30.599 22.857 92.402 39.924 144.814 14.629-16.966 29.257-26.357 33.829-30.902 0 0 0 0 0 0 8.533-10.301 27.733-1.818 70.705 12.724s71.924 26.66 85.638 36.658c7.010 5.15 16.457 11.815 26.21 17.572 6.4 2.424 11.581 3.636 11.581 3.636 16.457 1.818 39.010 16.966 37.181 25.751-0.914 4.544-4.876 6.059-4.876 6.059 6.4 4.847-1.524 14.239-5.486 12.118 6.4 8.18-6.705 12.118-6.705 12.118 2.438 6.059-4.267 10.907-12.8 7.574-1.829-0.606-3.048-1.515-3.048-1.515s-5.181 3.938-12.19 0.909c-5.486-2.424-15.238-7.877-15.848-17.269-0.305-3.030-1.524-10.604-2.438-15.754-16.152-15.148-45.714-16.966-78.019-22.116-33.829-5.453-63.086-13.027-68.571-14.542-20.724 36.052-49.371 57.259-57.6 60.592-3.657 4.544-6.4 10.301-9.143 14.239-7.314 10.604-10.362 15.451-10.362 15.451 9.143 13.936 14.324 34.537 14.324 34.537s10.057 0.606 18.286 1.818c4.571 0.606 9.752 0.606 12.8 3.636 1.219 1.212 1.524 2.727 1.219 6.362-0.305 1.818-0.914 5.453-0.914 7.574 0 1.515 0 3.030 0 4.544 0 0.909 0.305 2.424 0.305 3.333-0.305 13.633 2.133 15.148 2.133 15.148s0.61 0.606 5.181 2.121c1.829 0.606 5.181 1.212 6.4 2.727 4.267 4.544-16.457 40.596-17.067 42.414-0.305 0.606-0.914 3.333-0.61 4.241 0.61 2.424 2.133 8.18 2.438 9.695 0.305 2.121 0.305 3.636 0.305 4.241-0.61 21.51-2.133 23.631-2.438 23.631l6.4 1.818c-8.838 19.086-18.59 35.749-57.295 38.476-38.705 2.424-58.514-16.966-58.514-16.966-11.276-9.695-32.914-24.54-32.914-24.54l8.229-3.030c-17.371-9.089-27.124-36.355-27.124-36.355l10.057 0.909c0 0-1.524-4.847-3.352-8.483-1.524-2.727-4.876-6.362-4.876-6.362s4.571-2.424 7.314-3.333c3.657-0.909 7.924-1.212 7.924-1.212s-3.048-3.636-5.181-5.756c-2.743-2.424-5.181-5.15-5.181-5.15s3.657-2.121 7.619-2.727c3.962-0.606 10.057-0.303 10.057-0.303l-14.324-10.301c0 0 3.352-3.636 6.095-5.453 3.048-2.121 7.314-4.241 7.314-4.241s-0.914-2.121-2.743-3.636c-1.829-1.818-4.876-2.727-4.876-2.727 12.8-24.843 38.4-30.296 38.4-30.296l-9.448-17.269c-23.467-9.998-41.752-19.692-55.771-27.872-94.171-29.69-130.438-70.589-140.495-79.678-10.667-3.938-14.629-26.963-23.771-66.954-7.924-33.931-10.362-71.498-13.105-93.917-0.305-0.606-0.305-1.515-0.305-2.121 0-0.303 0-0.606 0-1.212-0.61-3.938-1.219-7.574-1.829-9.998-1.829-6.665-4.571-11.815-5.181-12.724-8.838-15.451-5.181-45.747-2.133-49.685 2.438-3.333 8.838 0.303 8.838 0.303-0.305-10.301 13.105-8.786 14.324-3.030-1.524-6.968 12.8-8.483 15.238-2.424 2.133-6.968 15.543-1.515 15.543 6.059 0 5.756 6.4 2.424 7.924 10.301 0.914 4.241 4.571 22.116-3.048 29.084-2.743 2.727-9.752 6.968-13.714 11.512-1.829 18.178 6.095 36.052 18.59 63.015 16.152 35.446 31.695 82.102 31.695 82.102 25.295 10.604 44.8 20.601 59.429 29.084 3.657-29.69 3.962-30.902 16.152-71.801 9.752-32.72-0.914-68.469-14.933-101.794-10.057-15.148-23.467-41.202-26.819-76.346l-34.133-52.109 101.486-79.375c6.705 7.574 37.486 42.414 48.762 60.895 0 0 34.438-26.66 59.733-41.808l53.333 97.25c-0.61 0.606-0.61 0.606-0.914 0.606z" />
<glyph unicode="&#xe923;" glyph-name="34" horiz-adv-x="1069" d="M231.787 696.686c0-38.6-31.648-69.892-70.687-69.892s-70.687 31.292-70.687 69.892c0 38.6 31.648 69.892 70.687 69.892s70.687-31.292 70.687-69.892zM724.951 792.584c-27.946-55.263-93.701-78.019-151.237-52.013-55.892 27.632-78.906 94.273-52.604 149.537 27.946 56.889 95.345 78.019 151.237 52.013 55.892-27.632 80.55-94.273 52.604-149.537zM1053.727 714.565l-70.687-144.66c-13.151-26.006-42.741-39.010-72.331-27.632l-70.687 29.257 64.111-177.168c1.644-1.625 1.644-4.876 3.288-6.502l126.579-359.213c11.507-34.133-6.576-69.892-39.453-81.27-31.234-11.378-69.043 4.876-82.194 39.010l-106.852 297.448c-31.234 1.625-113.428 17.879-156.169 26.006l24.658-91.022c9.863-34.133-11.507-69.892-46.029-78.019-36.165-9.752-70.687 11.378-78.906 45.511l-52.604 191.797c-4.932 21.13 0 45.511 16.439 60.14 14.795 16.254 39.453 22.756 60.824 17.879l110.14-24.381-49.316 136.533-266.308-79.644c-23.014-6.502-49.316 1.625-64.111 22.756l-88.769-26.006c0-21.13-9.863-42.26-26.302-56.889-44.385-39.010-78.906-58.514-103.564-58.514-6.576 0-14.795 1.625-19.727 4.876-42.741 22.756-72.331 128.406-49.316 170.667 14.795 26.006 57.536 30.883 133.154 19.505 26.302-4.876 49.316-21.13 59.18-45.511l85.482 24.381c0 22.756 14.795 45.511 39.453 53.638l409.326 121.905c13.151 3.251 26.302 3.251 37.809-1.625l123.291-50.387 49.316 97.524c13.151 27.632 47.673 39.010 75.618 26.006 26.302-14.629 39.453-48.762 24.658-76.394z" />
<glyph unicode="&#xe924;" glyph-name="35" d="M872.107 811.52c-94.933-43.093-183.893-91.733-266.24-146.133-31.147 32.64-63.147 63.787-96.64 93.44 47.36 56.96 84.267 120.32 108.16 185.813l1.28 3.84c97.707-20.48 185.173-69.12 253.44-136.96zM565.973 957.013c-21.76-57.173-55.040-113.493-96.64-164.053-52.48 44.16-107.947 84.907-166.4 122.24 63.787 28.587 134.613 44.8 209.067 44.8 18.133 0 36.267-0.853 53.973-2.987zM16 575.36c33.707 132.053 119.040 243.413 232.96 311.68 65.28-40.32 126.933-84.693 185.173-133.547-2.347-2.56-4.693-4.907-7.253-7.68-118.613-118.613-272-182.187-410.88-170.453zM561.28 635.307c-188.587-132.267-343.467-295.68-463.147-488.747-61.653 84.48-98.133 188.587-98.133 301.44 0 25.6 1.92 50.773 5.547 75.307 11.307-0.853 24.533-2.133 43.093-2.133 143.787 0 296.107 68.267 415.573 187.307 3.413 3.413 6.827 7.253 9.813 10.667 30.293-26.88 59.307-54.613 87.253-83.84zM1021.653 496c-78.080 0-158.933-20.053-234.667-56.96-44.587 66.347-93.227 128.853-145.067 187.307 82.987 53.76 171.947 101.973 267.307 144.213 62.293-76.373 102.827-171.093 112.427-274.56zM1024 443.52c-0.853-102.4-32-197.547-84.48-277.333-36.907 80.427-78.080 156.373-123.093 228.053 67.413 31.787 138.027 49.28 205.227 49.28h2.347zM133.547 103.040c118.187 195.84 273.28 360.96 464 493.653 51.413-56.747 98.773-117.76 142.72-183.040-47.787-28.373-93.227-63.573-134.827-104.96-104.533-104.96-170.24-234.24-184.107-364.587-113.067 20.053-213.333 77.44-287.787 158.933zM642.773 271.36c38.613 38.827 81.493 71.68 126.72 98.133 49.92-78.293 94.507-161.92 133.973-251.307-93.867-111.36-234.453-182.187-391.467-182.187-13.227 0-26.24 0.427-39.040 1.493 13.013 117.333 74.667 238.72 169.813 333.867z" />
<glyph unicode="&#xe925;" glyph-name="36" d="M0 114.156c3.908 13.683 6.574 27.878 11.958 40.952 14.948 36.287 40.168 63.41 76.12 79.756 18.6 8.459 35.974 7.915 55.144-2.288 49.218-26.199 102.354-41.509 157.658-48 21.4-2.513 43.206-1.653 64.834-2.048 10.1-0.184 17.494 3.168 23.41 12.963 14.822 24.532 31.278 48.076 47.102 72.003 2.002 3.026 4.148 5.956 6.734 9.655 46.834-31.303 93.272-62.344 140.494-93.907-11.764-17.853-23.434-34.866-34.244-52.414-3.098-5.028-4.526-11.496-5.294-17.488-2.546-19.821-2.592-40.14-6.93-59.52-13.132-58.641-49.816-93.929-108.892-106.039-53.384-10.943-107.184-11.999-161.192-7.721-56.984 4.513-113.25 13.659-166.158 36.199-21.534 9.174-42.228 21.322-61.366 34.866-21.288 15.069-34.97 36.439-37.794 63.446-0.126 1.216-1.038 2.347-1.584 3.517v36.070zM1024 863.62c-4.098-21.512-16.274-38.964-28.030-56.727-123.668-186.871-247.24-373.808-370.848-560.719-1.828-2.763-3.778-5.449-6.448-9.288-46.854 31.281-93.496 62.424-140.62 93.889 23.626 35.762 46.748 70.762 69.866 105.763 106.042 160.546 212.038 321.123 318.16 481.619 25.584 38.692 69.342 52.124 108.866 33.658 24.848-11.611 40.030-31.313 46.88-57.721 0.566-2.184 1.442-4.286 2.174-6.427v-24.047zM280.164 551.513c80.616-0.277 144.306-64.773 143.868-145.685-0.43-78.575-65.312-142.931-144.030-142.863-80.326 0.070-144.386 65.508-143.966 147.063 0.404 77.638 65.718 141.753 144.128 141.485z" />
<glyph unicode="&#xe926;" glyph-name="37" horiz-adv-x="939" d="M891.268 336.637c85.571 292.143-261.038 311.347-261.038 311.347 8.714 11.808 3.006 30.101 3.006 30.101 53.758 60.58 7.002 55.928 7.002 55.928 44.46 109.505-91.165 142.108-91.165 142.108 24.799 67.938-61.457 81.288-81.905 83.5v0.379c0 0-0.748-0.051-2.144-0.177-1.357 0.126-2.131 0.177-2.131 0.177v-0.379c-20.473-2.212-106.653-15.575-81.905-83.5 0 0-135.587-32.616-91.165-142.108 0 0-46.781 4.652 7.015-55.928 0 0-5.657-18.306 3.006-30.101 0 0-346.596-19.203-261.038-311.347 0 0-76.286-65.094-14.943-97.583 0 0-23.949-118.923 143.768-240.728 0 0-76.514-58.848-6.406-61.175h60.798c0 0 63.411-7.686 6.013 89.353-3.945 6.599-7.509 12.427-10.883 17.623-3.767 9.899-6.241 24.032-2.537 42.578 0 0 57.982-53.020 199.378-31.074l3.805-12.895 45.107-1.315v-0.114l2.131 0.063 2.144-0.063v0.114l45.094 1.315 3.831 12.895c141.396-21.946 199.378 31.074 199.378 31.074 3.704-18.533 1.256-32.667-2.537-42.578-3.361-5.183-6.977-11.011-10.883-17.623-57.398-97.040 6.013-89.353 6.013-89.353h60.798c70.134 2.326-6.393 61.175-6.393 61.175 167.742 121.805 143.768 240.728 143.768 240.728 61.33 32.49-14.981 97.583-14.981 97.583zM99.402 298.901c46.68 87.963 37.953 131.59 37.953 131.59 22.579-16.738 59.060 2.187 59.060 2.187-14.562-24.728 4.376-58.899 4.376-58.899-29.898-31.984-16.071-87.963-16.071-87.963-17.479 17.446-85.317 13.084-85.317 13.084zM483.76 84.29c0 0-246.54-9.267-296.428 202.006 0 0 87.283-142.905 302.352-132.071 215.094 10.885 252.476 138.265 252.476 138.265s24.976-178.315-258.4-208.201zM745.344 285.803c0 0 13.877 55.991-16.046 87.963 0 0 18.951 34.184 4.376 58.899 0 0 36.468-18.925 59.060-2.187 0 0-8.74-43.627 37.94-131.59 0.013 0.013-67.8 4.374-85.33-13.084z" />
<glyph unicode="&#xe927;" glyph-name="38" horiz-adv-x="1472" d="M1472 772.754v99.474c0 47.578-40.813 87.771-89.125 87.771h-327.75c-47.558 0-86.25-39.374-86.25-87.771v-99.474h503.125zM968.875 684.983v-661.211c0-48.397 38.692-87.771 86.25-87.771h327.75c48.312 0 89.125 40.193 89.125 87.771v661.211h-503.125zM1231.535 125.147c-21.379-6.483-45.738 4.087-53.791 29.228-6.466 22.063 4.41 46.844 28.75 54.74 23.578 7.297 49.393-7.030 54.798-33.412 3.901-21.211-6.808-42.947-29.756-50.556zM1231.535 312.393c-21.361-6.478-45.738 4.084-53.791 29.228-6.466 22.063 4.41 46.844 28.75 54.74 23.578 7.297 49.393-7.030 54.798-33.412 3.901-21.211-6.808-42.947-29.756-50.556zM784.875 960h-698.625c-47.552 0-86.25-39.38-86.25-87.771v-593.92c0-48.391 38.698-87.771 86.25-87.771h698.625c47.552 0 86.25 39.38 86.25 87.771v593.92c0 48.391-38.697 87.771-86.25 87.771zM667 23.771h-94.875v78.994h-270.25v-78.994h-94.875c-23.805 0-43.125-19.661-43.125-43.886s19.32-43.886 43.125-43.886h460c23.805 0 43.125 19.661 43.125 43.886s-19.32 43.886-43.125 43.886z" />
<glyph unicode="&#xe928;" glyph-name="39" d="M168 827.2c86.4 8 177.6-38.4 206.4-54.4 12.8 6.4 25.6 11.2 40 12.8 8 32 30.4 115.2 81.6 174.4-124.8-4.8-240-52.8-328-132.8zM428.8 536c-16 0-30.4 3.2-44.8 8-36.8-140.8-1.6-374.4 78.4-512 27.2-46.4 57.6-78.4 88-94.4 104 8 200 48 276.8 108.8 0 304-137.6 512-278.4 587.2-9.6-56-59.2-97.6-120-97.6zM451.2 784c17.6-3.2 35.2-9.6 49.6-20.8 145.6 43.2 304 43.2 406.4 11.2-88 105.6-217.6 174.4-361.6 184-57.6-46.4-84.8-136-94.4-174.4zM67.2 542.4c57.6 70.4 142.4 116.8 238.4 132.8 3.2 28.8 17.6 54.4 36.8 75.2-44.8 22.4-145.6 65.6-220.8 28.8-75.2-89.6-121.6-204.8-121.6-331.2 0-9.6 0-20.8 1.6-30.4 12.8 44.8 35.2 88 65.6 124.8zM945.6 718.4c-73.6 44.8-249.6 60.8-416 16 12.8-17.6 22.4-40 24-64 148.8-72 300.8-284.8 310.4-595.2 99.2 92.8 160 225.6 160 371.2 0 100.8-28.8 193.6-78.4 272zM428.8 571.2c49.6 0 89.6 40 89.6 89.6 0 0 0 0 0 0 0 49.6-40 89.6-89.6 89.6 0 0 0 0 0 0s0 0 0 0c-49.6 0-89.6-40-89.6-89.6s40-89.6 89.6-89.6zM432 14.4c-84.8 147.2-121.6 398.4-78.4 547.2-24 19.2-41.6 46.4-48 78.4-84.8-16-160-57.6-211.2-120-49.6-60.8-75.2-134.4-73.6-217.6 60.8-206.4 249.6-358.4 473.6-366.4-22.4 20.8-43.2 46.4-62.4 78.4z" />
<glyph unicode="&#xe929;" glyph-name="40" horiz-adv-x="1122" d="M723.676 513.054c-8.264 69.873-66.111 121.675-134.571 121.675h-95.636c-68.472 0-126.319-51.802-134.583-121.675l-8.264-65.054h380.149l-7.095 65.054zM540.69 932.289c70.42 0 127.5-58.248 127.5-130.108s-57.080-130.108-127.5-130.108c-70.408 0-127.5 58.248-127.5 130.108s57.091 130.108 127.5 130.108zM146.387 819.048c0 14.456 11.806 26.504 25.972 26.504s25.972-12.047 25.972-26.504c0-14.456-11.806-26.504-25.972-26.504s-25.972 12.047-25.972 26.504zM87.36 792.545c-14.167 0-25.972 12.047-25.972 26.504s11.806 26.504 25.972 26.504c14.167 0 25.972-12.047 25.972-26.504s-11.806-26.504-25.972-26.504zM257.359 844.347c14.167 0 25.972-12.047 25.972-26.504s-11.806-26.504-25.972-26.504c-14.167 0-25.972 12.047-25.972 26.504s11.806 26.504 25.972 26.504zM276.248 608.225c2.361-1.205 3.542-1.205 5.903-1.205 4.722 0 9.444 2.409 12.986 6.024 4.722 6.024 5.903 13.252 2.361 19.275-11.806 24.094-15.347 46.984-16.528 65.054h24.792c21.25 0 38.958 18.071 38.958 39.755v163.84c0 21.685-17.708 39.755-38.958 39.755h-266.805c-21.25 0-38.958-18.071-38.958-39.755v-165.045c0-21.685 17.708-39.755 38.958-39.755h134.583c20.069-26.504 57.847-71.078 102.708-87.944zM1092.010 914.219h-192.43v13.252c0 18.071-14.167 32.527-31.875 32.527s-31.875-14.456-31.875-32.527v-543.322h-691.803c-20.069 0-36.597-16.866-36.597-37.346v-222.871c0-20.48 16.528-37.346 36.597-37.346h70.833v-103.605c0-20.48 16.528-37.334 36.597-37.334h605.623c20.069 0 36.597 16.854 36.597 37.334v102.4h70.833c20.069 0 36.597 16.878 36.597 37.346v224.075c0 20.48-16.528 37.346-36.597 37.346h-64.93v314.428h192.43c16.528 0 29.514 13.252 29.514 30.118v156.612c0 15.661-12.986 28.913-29.514 28.913z" />
<glyph unicode="&#xe92a;" glyph-name="41" horiz-adv-x="1117" d="M502.691 675.423c-26.764 54.772-82.618 92.874-146.618 92.874-90.764 0-164.073-75.014-164.073-167.888 0-59.535 30.255-110.735 75.636-141.693 31.418 60.726 90.764 103.591 159.418 113.116 17.455 40.484 43.055 75.014 75.636 103.591zM953.018 515.87c-6.982 0-13.964-1.191-20.945-1.191-30.255 102.4-123.345 176.223-233.891 176.223-109.382 0-202.473-73.823-232.727-176.223-3.491 0-6.982 0-10.473 0-87.273 0-158.255-72.633-158.255-161.935s70.982-161.935 158.255-161.935h498.036c87.273 0 158.255 72.633 158.255 161.935 0 90.493-70.982 163.126-158.255 163.126zM354.909 815.926c18.618 0 33.745 15.479 33.745 34.53v71.442c0 19.051-15.127 34.53-33.745 34.53s-33.745-15.479-33.745-34.53v-71.442c0-19.051 15.127-34.53 33.745-34.53zM158.255 752.819c6.982-7.144 15.127-10.716 24.436-10.716 8.145 0 17.455 3.572 24.436 10.716 12.8 13.098 12.8 35.721 0 48.819l-51.2 51.2c-12.8 13.098-34.909 13.098-47.709 0s-12.8-35.721 0-48.819l50.036-51.2zM144.291 599.219c0 19.051-15.127 34.53-33.745 34.53h-69.818c-18.618 0-33.745-15.479-33.745-34.53s15.127-34.53 33.745-34.53h69.818c18.618 0 33.745 15.479 33.745 34.53zM158.255 446.809l-50.036-51.2c-12.8-13.098-12.8-35.721 0-48.819 6.982-7.144 15.127-10.716 24.436-10.716 8.145 0 17.455 3.572 24.436 10.716l50.036 51.2c12.8 13.098 12.8 35.721 0 48.819-13.964 13.098-36.073 13.098-48.873 0zM529.455 742.102c8.145 0 17.455 3.572 24.436 10.716l50.036 51.2c12.8 13.098 12.8 35.721 0 48.819s-34.909 13.098-47.709 0l-50.036-51.2c-12.8-13.098-12.8-35.721 0-48.819 5.818-7.144 13.964-10.716 23.273-10.716zM550.4 141.991c-17.455 9.526-38.4 1.191-47.709-16.67l-66.327-134.549c-9.309-17.86-1.164-39.293 16.291-48.819 4.655-2.381 10.473-3.572 16.291-3.572 12.8 0 25.6 7.144 31.418 20.242l66.327 134.549c8.145 17.86 1.164 39.293-16.291 48.819zM701.673 141.991c-17.455 9.526-38.4 1.191-47.709-16.67l-66.327-134.549c-9.309-17.86-1.164-39.293 16.291-48.819 4.655-2.381 10.473-3.572 16.291-3.572 12.8 0 25.6 7.144 31.418 20.242l66.327 134.549c8.145 17.86 1.164 39.293-16.291 48.819zM852.945 141.991c-17.455 9.526-38.4 1.191-47.709-16.67l-66.327-134.549c-9.309-17.86-1.164-39.293 16.291-48.819 4.655-2.381 10.473-3.572 16.291-3.572 12.8 0 25.6 7.144 31.418 20.242l66.327 134.549c8.145 17.86 1.164 39.293-16.291 48.819z" />
<glyph unicode="&#xe92b;" glyph-name="42" horiz-adv-x="1229" d="M38.55 960c-10.236 0.037-20.064-3.861-27.302-10.831s-11.287-16.432-11.248-26.288v-577.282h1228.8v577.282c0.081 20.419-17.043 37.037-38.251 37.118h-1151.999zM0 243.2v-110.275c-0.039-9.954 4.010-19.511 11.248-26.55s17.066-10.976 27.302-10.938h451.275v-84.895h-104.625c-1.224 0.057-2.451 0.057-3.675 0-19.931-2.409-34.587-19.344-33.624-38.853s17.222-35 37.299-35.539h458.7c14.485-1.265 28.461 5.535 36.105 17.566s7.644 27.229 0 39.26c-7.644 12.031-21.621 18.831-36.105 17.566h-104.625v84.895h451.275c21.207 0.082 38.331 16.865 38.251 37.488v110.275h-1228.8z" />
<glyph unicode="&#xe92c;" glyph-name="43" horiz-adv-x="811" d="M162.474 158.544l-68.274-124.784c-41.668-4.8-73.933-38.72-75.554-81.12-0.162-4.32 1.459-8.64 4.54-11.68 3.081-3.2 7.296-4.96 11.674-4.96h139.759c4.378 0 8.593 1.76 11.674 4.96 3.081 3.040 4.702 7.36 4.54 11.68-1.459 37.44-26.752 68.16-61.286 78.24l69.831 127.664h-36.902zM716.305 33.76l-68.258 124.784h-36.837l69.75-127.504c-34.534-10.080-59.827-40.96-61.286-78.4-0.162-4.32 1.459-8.64 4.54-11.68 3.081-3.2 7.296-4.96 11.674-4.96h139.759c4.378 0 8.593 1.76 11.674 4.96 3.081 3.040 4.702 7.36 4.54 11.68-1.621 42.4-33.886 76.32-75.554 81.12zM330.639 564c0 2.448 0.503 4.752 0.73 7.136l-327.315 130.032v-289.824l327.396 144.736c-0.292 2.64-0.811 5.2-0.811 7.92zM455.757 510.080l162.133-296.32 174.293 171.84-331.401 129.6c-1.621-1.76-3.243-3.52-5.026-5.12zM619.674 417.28c30.319 0 54.963-24.32 54.963-54.080 0-29.92-24.644-54.24-54.963-54.24s-54.801 24.32-54.801 54.24c0 29.76 24.482 54.080 54.801 54.080zM345.944 608.192c-1.021 1.28-1.848 2.752-2.448 4.368l-121.876 330.304-212.038-209.408 331.871-131.84c1.394 2.272 2.87 4.464 4.491 6.576zM20.591 383.52l172.023-169.76 162.133 296.32c-5.026 4.48-9.242 9.76-12.809 15.52l-321.348-142.080zM191.804 308.96c-30.319 0-54.801 24.32-54.801 54.24 0 29.76 24.482 54.080 54.801 54.080s54.963-24.32 54.963-54.080c0-29.92-24.644-54.24-54.963-54.24zM469.003 601.856l325.758 137.824-205.212 202.528-142.904-316.928c9.144-6.032 16.667-14.112 22.358-23.424zM479.201 571.36c0.259-2.464 0.762-4.848 0.762-7.376 0-7.168-1.362-13.952-3.308-20.496l329.958-129.024v295.424l-327.412-138.528zM405.301 637.68c3.745 0 7.328-0.56 10.928-1.088l145.823 323.408h-312.236l121.957-330.544c10.117 5.088 21.418 8.224 33.529 8.224zM405.333 490.24c-7.945 0-15.241 1.6-22.374 3.84l-166.349-304 17.673-17.44c3.081-3.040 7.134-4.64 11.511-4.64h319.078c4.215 0 8.431 1.6 11.349 4.64l17.673 17.44-166.187 304c-7.134-2.24-14.592-3.84-22.374-3.84zM349.559 212.64c-30.319 0-54.963 24.32-54.963 54.24s24.644 54.080 54.963 54.080c30.319 0 54.801-24.16 54.801-54.080s-24.482-54.24-54.801-54.24zM534.716 266.88c0-29.92-24.482-54.24-54.801-54.24s-54.963 24.32-54.963 54.24c0 29.92 24.644 54.080 54.963 54.080s54.801-24.16 54.801-54.080zM460.134 391.84c0-29.92-24.482-54.080-54.801-54.080s-54.963 24.16-54.963 54.080c0 29.92 24.644 54.24 54.963 54.24s54.801-24.32 54.801-54.24zM447.968 564c0-23.564-19.103-42.667-42.667-42.667s-42.667 19.103-42.667 42.667c0 23.564 19.103 42.667 42.667 42.667s42.667-19.103 42.667-42.667z" />
<glyph unicode="&#xe92d;" glyph-name="44" horiz-adv-x="1069" d="M205.779 923.655c-4.596 0.393-9.157 0.595-13.672 0.595-74.911 0-143.044-58.344-176.364-144.074 26.311 44.056 68.018 71.442 112.482 67.036 69.052-6.549 118.801-85.968 110.759-177.652-7.698-87.159-65.375-153.957-130.75-153.957h-9.077c-35.686 4.513-67.179 26.291-84.907 58.701-5.653 9.18-10.432 18.908-14.247 29.053 6.124-32.947 18.245-64.393 35.732-92.636 31.481-49.89 76.29-80.015 126.384-84.778 104.095-10.002 198.308 93.827 210.372 230.995s-62.733 256.833-166.712 266.716zM6.895 694.091c2.47 33.816 15.729 65.822 37.685 90.969 18.774 22.254 46.44 34.221 74.911 32.387 28.345-3.417 53.507-20.385 68.018-45.842 17.188-28.874 24.622-62.845 21.141-96.566-6.204-70.013-52.622-123.713-105.244-123.713h-7.353c-28.345 3.417-53.507 20.373-68.018 45.842-17.269 28.958-24.702 63.071-21.141 96.923zM100.534 532.275c60.55-5.596 115.814 56.677 123.512 139.193s-36.192 154.791-96.856 159.911h-7.698c-57.447 0-108.461-60.607-114.895-139.55-4.171-38.174 3.906-76.717 22.979-109.663 15.465-27.529 42.454-45.997 72.958-49.89zM125.925 680.631c-2.068-23.814-17.464-42.389-34.468-40.722s-28.264 22.385-26.196 46.437c2.068 24.052 17.464 42.389 34.468 40.722s28.264-21.79 26.196-46.437zM119.031 813.156h-7.009c-24.794-0.643-48.198-12.002-64.571-31.315-21.313-24.469-34.158-55.594-36.537-88.469-3.435-32.804 3.757-65.846 20.451-93.946 13.856-24.374 37.915-40.627 65.030-43.937 53.426-5.001 101.912 48.58 108.116 119.070 3.435 32.804-3.757 65.857-20.451 93.946-13.695 24.647-37.789 41.186-65.030 44.651zM904.684 404.033c-34.468-30.363-92.617-21.194-122.018-1.667-67.099 44.77-61.239 112.521-31.481 139.193 35.847 32.744 90.537 23.338 128.567-2.977 49.29-34.768 61.469-101.805 25.047-134.311l-0.115-0.238zM873.662 594.545c-29.781 13.836-61.94 21.325-94.57 22.028-57.447 0-102.704-27.862-125.224-80.729-12.845-33.816-11.558-71.632 3.55-104.424 21.6-50.902 62.319-90.469 112.723-109.544 55.035-20.599 110.402-20.48 152.006 0 26.816 12.348 47.578 35.542 57.447 64.179 24.587 75.371-24.829 172.651-105.933 208.491v0zM1005.33 361.050c-11.777-34.518-36.686-62.535-68.937-77.514-26.931-12.836-56.298-19.265-85.941-18.813-33.434 0.393-66.547 6.751-97.89 18.813-61.549 22.957-111.368 71.025-137.874 133.001-18.13 39.341-19.636 84.73-4.136 125.261 40.903 95.851 145.342 123.356 265.867 70.251 98.695-43.46 158.785-160.744 128.912-250.999zM703.961 666.703c-23.875 0.012-47.681-2.346-71.12-7.025-85.137-18.456-156.027-70.727-189.806-150.385-29.988-70.132-26.77-150.504 8.847-226.233 38.651-78.991 102.923-141.348 181.534-176.104 94.558-43.341 201.985-46.913 287.237-9.407 58.987 23.671 105.519 72.121 128.108 133.358 10.938 31.78 15.706 65.488 14.017 99.185-11.489 187.773-167.632 336.61-358.816 336.61zM983.035 384.987c-10.134-29.672-31.562-53.724-59.274-66.56-22.864-10.895-47.796-16.348-72.97-15.955-28 0.262-55.758 5.537-82.023 15.598-51.381 19.456-92.869 59.797-114.895 111.687-15.465 33.661-16.752 72.478-3.573 107.163 34.468 81.801 123.179 105.615 224.849 60.726 82.954-36.078 133.278-135.62 107.886-212.659zM873.77 604.671c-35.146 16.372-73.131 25.231-111.666 26.076-66.065 0-118.342-31.792-144.193-92.16-14.672-38.555-13.178-81.706 4.125-119.070 25.564-59.785 73.521-106.175 132.83-128.476 64.789-23.826 129.716-24.409 178.305 0 30.436 14.015 53.978 40.365 65.145 72.871 28.391 86.326-29.758 198.489-124.546 240.759zM926.744 82.661c-42.58-18.206-88.251-27.41-134.312-27.029-56.896 0.202-113.114 12.645-165.115 36.566-81.943 36.292-148.938 101.34-189.22 183.713-24.932 51.057-34.997 108.52-28.953 165.4 0.77 6.346 1.723 12.621 2.872 18.801v1.084c1.034 5.346 2.298 10.704 3.677 16.074l1.149 4.394c1.149 4.406 2.528 8.692 3.906 12.991l1.494 4.513c1.953 5.596 4.021 11.085 6.434 16.563s4.94 10.954 7.583 16.301c7.836 15.289 17.108 29.72 27.69 43.103 15.35 19.408 33.205 36.519 53.081 50.843 2.011 14.003 3.010 28.124 2.987 42.282 1.091 153.409-118.031 278.695-266.062 279.833-22.198 0.159-44.326-2.52-65.869-8.009 6.365 0.191 12.73-0.012 19.073-0.595 112.367-10.597 193.368-137.99 180.5-283.981-12.179-139.3-106.163-245.998-211.981-245.998-4.986 0-9.996 0.238-15.051 0.714-6.492 0.643-12.937 1.679-19.302 3.108 69.19-32.899 148.674-33.471 218.3-1.548-24.61-80.503-36.893-220.279 64.766-341.754 90.847-108.544 204.915-121.725 279.562-121.558 145.549-1.405 277.597 88.159 334.574 226.947-27.678-41.591-66.547-73.847-111.781-92.755z" />
<glyph unicode="&#xe92e;" glyph-name="46" d="M674.298 542.231c-42.282-50.062-90.612-92.058-145.868-125.912-55.292-33.876-114.816-57.622-179.952-72.706 5.072-2.926 7.884-4.656 10.79-6.208 64.012-34.132 131.778-47.748 203.72-35.644 77.76 13.080 142.384 50.354 194.85 108.914 1.884 2.104 2.774 6.738 1.882 9.454-16.030 48.746-44.24 89.094-85.422 122.102zM349.213 917.716c-3.168-1.5-4.396-1.986-5.532-2.63-123.492-70.122-189.748-230.766-151.602-367.014 1.704-6.084 4.81-8.086 10.464-7.774 25.894 1.426 51.966 1.46 77.632 4.702 21.572 2.722 42.672 9.176 65.698 14.366-46.218 120.494-46.048 238.714 3.34 358.35zM623.39 573.945c-29.538 13.802-58.568 21.29-88.998 24.156-8.33 0.784-14.106-1.112-20.446-6.764-66.926-59.68-144.514-96.774-233.776-108.166-19.956-2.546-40.132-3.376-61.002-5.060 15.666-30.776 35.75-57.892 60.022-81.898 1.772-1.752 6.104-1.698 9.096-1.316 105.328 13.398 198.292 54.96 278.704 124.056 19.576 16.822 37.092 36.044 56.4 54.992zM522.145 748.055c-1.702-28.568 1.826-55.050 8.934-81.268 1.884-6.95 5.47-8.58 11.82-9.2 83.568-8.168 153.772-43.53 208.904-106.612 19.75-22.598 35.358-48.814 52.634-73.064-0.768-1 0.158-0.108 0.714 0.974 16.462 31.9 27.242 65.676 32.316 101.162 0.598 4.19-1.514 9.834-4.274 13.28-55.34 69.154-125.698 115.968-210.908 140.164-32.39 9.196-65.45 14.46-100.14 14.564zM836.424 679.439c0.406 1.552 0.768 2.16 0.67 2.68-22.524 119.702-89.11 204.716-200.366 254.632-5.158 2.314-9.004 1.712-13.522-1.674-41.414-31.026-70.784-70.82-87.832-119.682-0.736-2.108-1.042-4.364-1.698-7.192 116.462-6.896 217.228-49.638 302.748-128.764zM1023.787 195.515c-1.818-6.332-3.338-12.768-5.502-18.978-12.278-35.208-43.916-58.516-81.094-58.888-42.32-0.42-84.65-0.262-126.974-0.018-19.232 0.11-36.652 6.428-51.88 18.134-4.612 3.542-7.618 4.4-12.748 0.316-16.184-12.882-35.008-18.654-55.724-18.596-38.658 0.108-77.318 0.12-115.978-0.004-20.718-0.066-39.498 5.714-55.75 18.526-4.886 3.854-7.862 3.788-12.726-0.026-16.284-12.76-35.084-18.54-55.784-18.492-38.326 0.092-76.652 0.126-114.976-0.014-21.052-0.078-40.226 5.598-56.698 18.714-5.154 4.104-8.124 3.184-12.722-0.394-14.598-11.358-31.374-17.874-49.864-18.050-42.986-0.41-85.992-0.744-128.968 0.034-44.838 0.81-82.336 36.96-86.302 81.706-0.202 2.28-0.026 4.594-0.026 7.458h58.876c6.066-22.66 14.878-29.424 38.272-29.426 35.994-0.006 71.986-0.010 107.98 0 22.576 0.006 31.744 7.224 37.32 29.654h56.142c5.11-8.108 8.412-17.032 14.754-22.292 5.54-4.598 14.468-6.908 21.958-7.052 36.314-0.688 72.648-0.274 108.974-0.316 23.488-0.028 32.228 6.628 38.28 29.656h55.356c6.132-8.834 9.92-18.776 17.126-23.43 7.386-4.764 18.088-5.772 27.388-5.952 33.648-0.652 67.316-0.268 100.976-0.27 24.518 0 32.754 6.176 39.27 29.676h57.68c8.24-24.734 15.136-29.676 41.258-29.676 34.992-0.002 69.986-0.002 104.98 0 25.22 0 32.858 5.594 40.392 30h56.734v-12zM1023.787 15.515c-1.818-6.332-3.336-12.768-5.502-18.978-12.278-35.208-43.916-58.516-81.094-58.888-42.32-0.422-84.65-0.264-126.974-0.016-19.228 0.11-36.654 6.414-51.874 18.14-4.596 3.54-7.592 4.452-12.74 0.354-16.184-12.882-35.022-18.67-55.724-18.632-38.658 0.074-77.318 0.084-115.976-0.004-20.7-0.048-39.5 5.732-55.766 18.518-4.892 3.846-7.864 3.784-12.728-0.030-16.282-12.758-35.084-18.538-55.782-18.49-38.326 0.092-76.652 0.128-114.978-0.014-21.050-0.078-40.224 5.598-56.696 18.714-5.154 4.104-8.124 3.184-12.722-0.394-14.598-11.358-31.374-17.874-49.864-18.050-42.986-0.41-85.992-0.744-128.968 0.034-44.836 0.81-82.342 36.97-86.302 81.71-0.202 2.28-0.026 4.59-0.026 7.456h58.878c6.056-22.654 14.878-29.426 38.274-29.428 35.994-0.006 71.986-0.010 107.98 0 22.572 0.006 31.734 7.22 37.318 29.656h56.138c5.114-8.112 8.416-17.036 14.758-22.296 5.54-4.596 14.468-6.906 21.958-7.050 36.314-0.688 72.648-0.274 108.974-0.318 23.488-0.026 32.222 6.624 38.28 29.658h55.354c6.132-8.834 9.922-18.778 17.128-23.43 7.386-4.766 18.088-5.772 27.386-5.952 33.648-0.652 67.316-0.268 100.976-0.27 24.518 0 32.752 6.174 39.272 29.676h57.68c8.236-24.732 15.134-29.676 41.256-29.676 34.992 0 69.986-0.002 104.98 0 25.22 0 32.858 5.594 40.394 30h56.732v-12zM555.853 957.547c-8.336-9.266-16.498-17.48-23.692-26.466-67.684-84.546-86.66-179.198-57.692-283.364 2.084-7.492 1.040-11.656-4.902-15.894-22.396-15.972-44.642-32.158-66.944-48.266-1.434 0.504-2.868 1.008-4.302 1.51-7.41 29.156-17.058 57.952-21.82 87.536-15.442 95.966 2.278 185.978 52.762 269.38 4.47 7.39 9.488 11.952 18.332 13.034 13.46 1.648 100.944 3.976 108.258 2.53zM674.298 542.231c41.182-33.008 69.392-73.356 85.422-122.102 0.892-2.716 0.002-7.35-1.882-9.454-52.466-58.56-117.090-95.834-194.85-108.914-71.942-12.104-139.708 1.512-203.72 35.644-2.906 1.552-5.718 3.282-10.79 6.208 65.136 15.084 124.66 38.83 179.952 72.706 55.256 33.854 103.586 75.85 145.868 125.912zM349.213 917.716c-49.388-119.636-49.558-237.856-3.34-358.35-23.026-5.19-44.126-11.644-65.698-14.366-25.666-3.242-51.738-3.276-77.632-4.702-5.654-0.312-8.76 1.69-10.464 7.774-38.146 136.248 28.11 296.892 151.602 367.014 1.136 0.644 2.364 1.13 5.532 2.63zM623.39 573.945c-19.308-18.948-36.824-38.17-56.4-54.992-80.412-69.096-173.376-110.658-278.704-124.056-2.992-0.382-7.324-0.436-9.096 1.316-24.272 24.006-44.356 51.122-60.022 81.898 20.87 1.684 41.046 2.514 61.002 5.060 89.262 11.392 166.85 48.486 233.776 108.166 6.34 5.652 12.116 7.548 20.446 6.764 30.43-2.866 59.46-10.354 88.998-24.156zM522.145 748.055c34.69-0.104 67.75-5.368 100.14-14.564 85.21-24.196 155.568-71.010 210.908-140.164 2.76-3.446 4.872-9.090 4.274-13.28-5.074-35.486-15.854-69.262-32.316-101.162-0.556-1.082-1.482-1.974-0.714-0.974-17.276 24.25-32.884 50.466-52.634 73.064-55.132 63.082-125.336 98.444-208.904 106.612-6.35 0.62-9.936 2.25-11.82 9.2-7.108 26.218-10.636 52.7-8.934 81.268zM836.424 679.439c-85.52 79.126-186.286 121.868-302.748 128.764 0.656 2.828 0.962 5.084 1.698 7.192 17.048 48.862 46.418 88.656 87.832 119.682 4.518 3.386 8.364 3.988 13.522 1.674 111.256-49.916 177.842-134.93 200.366-254.632 0.098-0.52-0.264-1.128-0.67-2.68z" />
<glyph unicode="&#xe92f;" glyph-name="47" d="M980.615 829.084c-32.103 56.062-71.277 88.23-107.54 88.25-2.948 0-5.755-0.602-8.306-1.684-19.382-3.994-34.277-20.408-34.277-40.982v-128c0-15.588 8.799-28.664 21.292-36.112v-606.244c-25.502-5.494-42.583-20.674-42.583-40.31s17.081-34.816 42.583-40.31v-66.356c0-11.792 9.523-21.334 21.292-21.334s21.179 9.542 21.179 21.334v66.356c25.504 5.494 42.697 20.674 42.697 40.31s-17.19 34.816-42.697 40.31v539.704c17.174-16.466 38.555-25.17 63.614-25.348 0.208 0 0.415 0 0.583 0 23.247 0 41.96 10.23 52.813 28.854 25.406 43.582 1.91 124.666-30.65 181.562zM974.501 669.042c-2.329-4.042-5.823-8.104-16.302-7.708-14.679 0.104-26.448 4.896-35.93 14.646-9.897 10.152-16.304 24.74-20.548 39.55 8.449 7.802 13.937 18.744 13.937 31.138v100.846c9.531-10.678 19.107-24.080 28.029-39.658 30.522-53.336 44.371-115.586 30.814-138.814zM170.23 104.31v606.244c12.494 7.448 21.292 20.524 21.292 36.112v128c0 20.572-14.895 36.988-34.277 40.982-2.553 1.084-5.36 1.684-8.306 1.684-36.263-0.020-75.479-32.188-107.54-88.25-32.604-56.874-56.059-137.958-30.65-181.54 10.855-18.646 29.568-28.876 52.813-28.876 0.166 0 0.373 0 0.583 0 25.057 0.18 46.431 8.882 63.606 25.348v-539.706c-25.502-5.492-42.689-20.672-42.689-40.308s17.186-34.816 42.689-40.31v-66.356c0-11.792 9.42-21.334 21.187-21.334 11.769 0 21.292 9.542 21.292 21.334v66.356c25.504 5.494 42.583 20.674 42.583 40.31s-17.079 34.816-42.583 40.31zM99.743 675.98c-9.481-9.75-21.25-14.542-35.93-14.646-0.084 0-0.208 0-0.291 0-10.106 0-13.681 3.708-16.011 7.708-13.558 23.23 0.291 85.5 30.814 138.812 8.913 15.588 18.492 28.998 28.029 39.678v-100.864c0-12.394 5.487-23.336 13.937-31.138-4.246-14.812-10.651-29.4-20.548-39.55zM687.781 286.088c-27.031 56.37-46.367 98.26-57.514 124.466 0 0.020 0 0.042 0 0.062-5.154 12.036-11.098 26.464-17.5 42.436-0.006 0.014-0.002 0.026-0.002 0.026-8.088 20.074-17.113 42.974-26.612 67.358 54.272 116.29 118.818 250.682 150.199 315.76 10.356 21.498 11.52 46.516 3.16 68.66-8.276 22.018-24.702 39.204-46.244 48.35 0 0 0 0-0.042 0-21.624 9.186-45.411 9.040-66.953-0.334-21.957-9.52-38.716-27.248-47.074-49.932-15.324-41.496-40.72-110.022-68.624-184.308-27.937 74.388-53.338 142.906-68.648 184.328-8.36 22.664-25.117 40.392-47.074 49.912-21.624 9.374-45.411 9.52-66.953 0.334-0.042 0-0.042 0-0.042 0-21.542-9.166-37.968-26.352-46.244-48.39-8.318-22.122-7.194-47.14 3.16-68.638 31.455-65.204 96.076-199.708 150.225-315.704-9.531-24.456-18.57-47.376-26.632-67.36-0.010-0.026-0.006-0.052-0.016-0.078-6.441-15.98-12.34-30.43-17.45-42.5-11.262-26.42-30.622-68.256-57.508-124.346-0.024-0.046-0.068-0.072-0.088-0.12-37.634-78.596-82.255-168.544-111.283-226.684 0 0 0 0 0-0.020-10.605-21.248-12.019-46.12-3.868-68.202s24.494-39.266 46.036-48.432c10.605-4.478 21.708-6.732 32.812-6.732 11.52 0 23.081 2.42 34.018 7.254 21.542 9.478 38.425 27.748 46.367 50.14 21.744 61.438 55.665 156.422 86.106 238.298l0.018 0.032c20.372 54.784 36.070 95.282 47.056 121.586 11.084-26.474 26.752-66.94 47.052-121.566 30.441-81.888 64.374-176.898 86.166-238.37 7.901-22.372 24.786-40.642 46.326-50.12 10.937-4.838 22.498-7.254 34.016-7.254 11.104 0 22.207 2.25 32.812 6.728 21.584 9.166 37.926 26.394 46.076 48.474 8.11 22.102 6.695 46.954-3.908 68.18-29.027 58.14-73.606 148.11-111.325 226.706zM473.615 375.392c-9.897-23.352-24.119-59.66-42.293-108.072l-49.903 20.624c22.249 46.662 38.591 82.22 48.655 105.884 0 0.020 0 0.042 0 0.042 2.952 6.936 6.154 14.624 9.523 22.914l43.665-19.124c-3.533-8.020-6.777-15.478-9.647-22.268zM638.565 287.47l-48.759-20.152c-18.091 48.266-32.271 84.574-42.293 108.092-2.87 6.77-6.114 14.228-9.607 22.248l43.623 19.124c3.409-8.312 6.613-16.020 9.565-22.956 9.981-23.518 26.283-59.078 48.613-105.884l-1.142-0.472z" />
<glyph unicode="&#xe930;" glyph-name="48" d="M301.605 861.257c0 0-96.268-568.344-235.083-701.842h235.083v701.842zM940.556 159.415l-580.645 701.842c0 0 89.026-548.303 0-701.842h580.645zM340.143 115.566c0.037 0.561 0.112 1.122 0.112 1.707v816.53c0 8.411-4.358 15.214-9.716 15.214-5.407 0-9.765-6.802-9.765-15.214v-816.542c0-0.585 0.075-1.134 0.112-1.707h-316.99v-20.224h1016.208v20.236h-679.961zM96.268-53.016h844.288l79.547 132.779h-1016.208z" />
<glyph unicode="&#xe931;" glyph-name="49" d="M512 177.526c-65.924 0-119.533-53.713-119.533-119.766s53.609-119.766 119.533-119.766c65.924 0 119.533 53.713 119.533 119.766s-53.609 119.766-119.533 119.766zM393.274 636.388l-40.98 43.625-116.198-116.425c16.565-11.008 32.503-23.44 47.973-36.622l109.205 109.422zM755.182 251.099l-320.928 341.659-105.394-105.6 346.247-316.29zM962.56-53.237l50.698 50.797c11.67 11.693 11.67 30.65 0 42.343-11.672 11.695-30.591 11.693-42.261 0l-8.923-8.937-165.912 176.507-76.838-76.992 201.869-184.577c11.792-10.867 30.039-10.49 41.366 0.858zM40.175 667.681c9.74-9.759 20.016-16.787 30.519-20.863 33.543-13.019 73.834-31.111 112.373-51.679l132.026 132.284c-15.232 31.137-18.364 71.063-3.295 107.087 13.679 32.814 7.778 61.344-18.057 87.234-58.252 58.37-162.521 48.877-232.436-21.171-69.913-70.047-79.386-174.521-21.129-232.891zM553.028 553.672l99.258-105.662 42.857 39.148-105.398 105.604zM787.906 563.588l-116.198 116.425-40.98-43.625 109.205-109.422c15.472 13.182 31.407 25.612 47.973 36.622zM953.308 646.82c10.503 4.076 20.779 11.104 30.519 20.863 58.256 58.37 48.783 162.844-21.127 232.891-69.917 70.045-174.188 79.539-232.44 21.173-25.835-25.887-31.736-54.42-18.057-87.234 15.069-36.024 11.939-75.952-3.295-107.087l132.026-132.284c38.541 20.564 78.834 38.656 112.375 51.677zM467.643 279.343l-92.73 84.705-106.094-112.949 80.075-80.231zM61.442-53.237c11.326-11.348 29.572-11.725 41.366-0.858l201.869 184.577-76.838 76.992-165.912-176.507-8.923 8.937c-11.67 11.693-30.587 11.695-42.261 0-11.67-11.693-11.67-30.65 0-42.343l50.698-50.797z" />
<glyph unicode="&#xe932;" glyph-name="50" horiz-adv-x="1069" d="M1063.946 845.894c0-59.947-48.505-108.544-108.339-108.544s-108.339 48.597-108.339 108.544c0 59.947 48.505 108.544 108.339 108.544s108.339-48.597 108.339-108.544zM791.31 358.26c-24.878-6.307-39.977-31.604-33.612-56.553 10.499-41.449-14.611-83.735-55.958-94.231l-380.463-96.815c2.346 2.909 4.576 5.935 6.62 9.193l167.944 268.172 291.149 214.295c41.347 30.441 50.267 88.716 19.861 130.141-22.787 31.092-58.351 41.681-96.469 35.444-3.624-0.582-399.186-80.058-399.186-80.058-31.428-6.4-51.73-37.12-45.366-68.608 5.598-27.578 29.802-46.615 56.864-46.615 3.833 0 7.712 0.396 11.614 1.164l138.304 28.137-101.068-74.38c-9.431-6.935-17.468-15.616-23.693-25.553l-177.375-283.206c-27.271-43.543-14.146-101.004 29.315-128.326 4.553-2.863 9.291-5.143 14.077-7.145l-178.838-45.498c-24.878-6.307-39.907-31.628-33.589-56.576 5.343-21.062 24.251-35.119 44.994-35.119 3.786 0 7.642 0.489 11.475 1.443l666.711 169.635c90.987 23.18 146.248 116.177 123.159 207.36-6.318 24.972-31.684 40.052-56.469 33.699z" />
<glyph unicode="&#xe933;" glyph-name="51" horiz-adv-x="939" d="M685.46 937.245l-142.073-385.524h253.206l142.073 385.524h-253.206zM517.581 481.626l-25.806-70.096h253.137l25.876 70.096h-253.206zM465.899 341.435l-25.806-70.094h-131.043l-116.267-315.429h233.435c61.17 0 110.867 21.238 145.75 53.187 34.045 31.182 54.173 71.049 65.209 110.072l0.138 0.397 81.789 221.921-253.206-0.054zM159.832 271.34c-87.931-0.004-159.832-70.947-159.832-157.715 0-72.883 50.97-134.008 119.319-151.896l114.116 309.611h-73.603z" />
<glyph unicode="&#xe934;" glyph-name="52" horiz-adv-x="1536" d="M1233.92 429.056c106.496 0 193.024-86.528 193.024-193.024s-86.528-193.024-193.024-193.024c-106.496 0-193.026 86.528-193.026 193.024-0.51 106.496 86.018 193.024 193.026 193.024zM1233.92 504.32c-148.48 0-268.288-120.32-268.288-268.288 0-148.48 120.32-268.8 268.288-268.8 148.48 0 268.8 120.32 268.8 268.8-0.512 148.48-120.832 268.288-268.8 268.288v0zM302.080 429.056c106.496 0 193.024-86.528 193.024-193.024s-86.528-193.024-193.024-193.024c-106.496 0-193.024 86.528-193.024 193.024s86.528 193.024 193.024 193.024zM302.080 504.32c-148.48 0-268.288-120.32-268.288-268.288 0-148.48 120.32-268.8 268.288-268.8 148.48 0 268.29 120.32 268.29 268.8 0.51 148.48-119.81 268.288-268.29 268.288v0zM851.968 195.072h-549.888v81.92h379.392l-202.752 202.752 43.52 43.52h-443.392l109.568 139.776h641.024l200.704 116.224 146.432-154.112zM1208.832 232.448l-55.296 379.904-291.84 260.096-114.176-34.304-14.848 48.128 141.312 42.496 326.656-290.816 57.856-398.336zM1168.896 605.184c-26.624-3.584-54.784 39.424-62.976 96.768s6.656 107.008 33.28 110.592c26.624 3.584 54.784-39.424 62.976-96.768s-6.656-106.496-33.28-110.592z" />
<glyph unicode="&#xe935;" glyph-name="53" d="M960.448 447.552c-40.256 0-79.104-5.824-116.288-15.872l16.896-33.856c7.872-15.808 1.472-35.008-14.336-42.944-4.608-2.304-9.472-3.328-14.336-3.328-11.712 0-22.976 6.528-28.608 17.664l-20.736 41.536c-42.368-18.368-81.152-43.2-115.52-73.024l27.52-27.52c12.48-12.48 12.48-32.768 0-45.248-6.272-6.272-14.464-9.344-22.656-9.344s-16.384 3.136-22.656 9.344l-27.52 27.52c-29.248-33.664-53.568-71.616-71.808-112.96l41.984-24.256c15.296-8.832 20.544-28.352 11.712-43.712-5.952-10.24-16.704-16-27.712-16-5.44 0-10.944 1.344-16 4.288l-31.552 18.24c-10.432-37.824-16.448-77.44-16.448-118.528 0-21.44 2.048-42.368 4.992-63.040 278.272 3.008 503.040 227.776 506.112 506.048-20.672 2.944-41.6 4.992-63.040 4.992zM572.416 956.288c2.432-19.968 3.968-40.192 3.968-60.736 0-60.736-11.2-118.784-30.656-172.864l44.992-22.528c15.808-7.936 22.208-27.136 14.336-42.944-5.632-11.2-16.96-17.664-28.672-17.664-4.8 0-9.664 1.088-14.272 3.392l-41.728 20.8c-19.712-38.592-44.096-74.24-72.512-106.432l23.232-23.232c12.48-12.48 12.48-32.768 0-45.248-6.336-6.208-14.528-9.28-22.72-9.28s-16.32 3.072-22.592 9.344l-23.232 23.232c-32.192-28.416-67.84-52.864-106.432-72.512l20.864-41.728c7.936-15.808 1.472-35.008-14.336-42.944-4.544-2.368-9.408-3.392-14.208-3.392-11.776 0-23.040 6.528-28.672 17.664l-22.464 44.992c-54.144-19.52-112.192-30.656-172.928-30.656-20.608 0-40.768 1.6-60.736 3.968 27.776-234.56 213.824-420.288 448.512-447.552-2.24 19.584-3.776 39.36-3.776 59.584 0 52.8 8.064 103.808 22.976 151.744l-38.976 22.528c-15.296 8.832-20.544 28.352-11.712 43.712s28.288 20.672 43.776 11.712l30.528-17.664c21.12 46.144 48.832 88.512 82.048 126.144l-23.232 23.168c-12.48 12.48-12.48 32.768 0 45.248s32.768 12.48 45.248 0l23.232-23.232c39.232 34.688 83.648 63.552 132.16 84.992l-14.656 29.312c-7.872 15.808-1.472 35.008 14.336 42.944 15.808 7.872 35.008 1.536 42.944-14.336l17.856-35.712c46.144 13.76 94.912 21.44 145.472 21.44 20.16 0 40-1.472 59.584-3.776-27.264 234.688-212.992 420.736-447.552 448.512zM462.72 764.16l25.472-12.736c15.424 45.312 24.192 93.632 24.192 144.128 0 21.952-2.112 43.328-5.184 64.448-279.104-2.496-504.768-228.16-507.2-507.264 21.056-3.072 42.496-5.184 64.384-5.184 50.432 0 98.816 8.768 144.128 24.192l-12.736 25.472c-7.872 15.808-1.472 35.008 14.336 42.944 15.808 7.808 35.008 1.472 42.944-14.336l14.528-29.056c32.448 16.576 62.528 36.928 89.792 60.608l-27.584 27.52c-12.48 12.48-12.48 32.768 0 45.248s32.768 12.48 45.248 0l27.584-27.584c23.68 27.264 44.032 57.344 60.608 89.792l-29.12 14.528c-15.808 7.936-22.208 27.136-14.336 42.944 8 15.808 27.136 22.144 42.944 14.336z" />
<glyph unicode="&#xe936;" glyph-name="54" d="M16.882 320.020c-1.326-6.13-2.956-12.88-4.020-18.424-26.718-139.014-11.044-261.796 39.96-312.774 34.482-34.482 101.748-52.822 184.716-52.822 39.726 0 83.056 4.218 128.056 12.862 5.548 1.066 12.304 2.696 18.442 4.024l-367.154 367.134zM971.178 907.224c-50.976 50.976-173.73 66.592-312.772 39.962-5.54-1.066-12.29-2.696-18.42-4.020l367.132-367.136c1.326 6.13 2.956 12.88 4.020 18.42 26.718 139.014 11.044 261.796-39.96 312.774zM571.166 925.146c-94.376-29.158-234.374-101.492-342.652-209.792-108.296-108.274-164.45-232.138-193.612-326.518l417.95-417.93c94.372 29.166 218.232 85.316 326.502 193.608 108.3 108.278 180.59 248.32 209.746 342.696l-417.934 417.936zM750.544 478.054c-5.86-5.86-13.536-8.79-21.21-8.79s-15.352 2.93-21.21 8.79l-63.63 63.636-42.43-42.43 63.636-63.63c11.718-11.718 11.718-30.704 0-42.422-5.86-5.86-13.536-8.79-21.21-8.79s-15.352 2.93-21.21 8.79l-63.636 63.63-58.564-58.608 63.648-63.648c11.718-11.718 11.718-30.704 0-42.422-5.86-5.86-13.536-8.79-21.21-8.79s-15.352 2.93-21.21 8.79l-63.648 63.648-42.432-42.432 63.63-63.636c11.718-11.718 11.718-30.704 0-42.422-5.86-5.86-13.536-8.79-21.21-8.79s-15.352 2.93-21.21 8.79l-63.63 63.636-51.214-51.214c-5.86-5.86-13.536-8.79-21.21-8.79s-15.352 2.93-21.21 8.79c-11.718 11.718-11.718 30.704 0 42.422l51.218 51.218-63.64 63.654c-11.718 11.718-11.718 30.704 0 42.422s30.704 11.718 42.422 0l63.64-63.654 42.43 42.43-63.648 63.648c-11.718 11.718-11.718 30.704 0 42.422s30.704 11.718 42.422 0l63.648-63.648 58.56 58.604-63.654 63.64c-11.718 11.718-11.718 30.704 0 42.422s30.704 11.718 42.422 0l63.654-63.64 42.436 42.436-63.64 63.654c-11.718 11.718-11.718 30.704 0 42.422s30.704 11.718 42.422 0l63.64-63.654 51.204 51.204c11.718 11.718 30.704 11.718 42.422 0s11.718-30.704 0-42.422l-51.208-51.208 63.63-63.636c11.708-11.718 11.708-30.702-0.010-42.422z" />
<glyph unicode="&#xe937;" glyph-name="55" d="M16.882 320.020c-1.326-6.13-2.956-12.88-4.020-18.424-26.718-139.014-11.044-261.796 39.96-312.774 34.482-34.482 101.748-52.822 184.716-52.822 39.726 0 83.056 4.218 128.056 12.862 5.548 1.066 12.304 2.696 18.442 4.024l-367.154 367.134zM971.178 907.224c-50.976 50.976-173.73 66.592-312.772 39.962-5.54-1.066-12.29-2.696-18.42-4.020l367.132-367.136c1.326 6.13 2.956 12.88 4.020 18.42 26.718 139.014 11.044 261.796-39.96 312.774zM571.166 925.146c-94.376-29.158-234.374-101.492-342.652-209.792-108.296-108.274-164.45-232.138-193.612-326.518l417.95-417.93c94.372 29.166 218.232 85.316 326.502 193.608 108.3 108.278 180.59 248.32 209.746 342.696l-417.934 417.936zM750.544 478.054c-5.86-5.86-13.536-8.79-21.21-8.79s-15.352 2.93-21.21 8.79l-63.63 63.636-42.43-42.43 63.636-63.63c11.718-11.718 11.718-30.704 0-42.422-5.86-5.86-13.536-8.79-21.21-8.79s-15.352 2.93-21.21 8.79l-63.636 63.63-58.564-58.608 63.648-63.648c11.718-11.718 11.718-30.704 0-42.422-5.86-5.86-13.536-8.79-21.21-8.79s-15.352 2.93-21.21 8.79l-63.648 63.648-42.432-42.432 63.63-63.636c11.718-11.718 11.718-30.704 0-42.422-5.86-5.86-13.536-8.79-21.21-8.79s-15.352 2.93-21.21 8.79l-63.63 63.636-51.214-51.214c-5.86-5.86-13.536-8.79-21.21-8.79s-15.352 2.93-21.21 8.79c-11.718 11.718-11.718 30.704 0 42.422l51.218 51.218-63.64 63.654c-11.718 11.718-11.718 30.704 0 42.422s30.704 11.718 42.422 0l63.64-63.654 42.43 42.43-63.648 63.648c-11.718 11.718-11.718 30.704 0 42.422s30.704 11.718 42.422 0l63.648-63.648 58.56 58.604-63.654 63.64c-11.718 11.718-11.718 30.704 0 42.422s30.704 11.718 42.422 0l63.654-63.64 42.436 42.436-63.64 63.654c-11.718 11.718-11.718 30.704 0 42.422s30.704 11.718 42.422 0l63.64-63.654 51.204 51.204c11.718 11.718 30.704 11.718 42.422 0s11.718-30.704 0-42.422l-51.208-51.208 63.63-63.636c11.708-11.718 11.708-30.702-0.010-42.422z" />
<glyph unicode="&#xe938;" glyph-name="56" horiz-adv-x="1446" d="M1264.941 587.636h-90.353l-130.741 269.405c-30.63 63.116-93.244 102.959-161.641 102.959h-520.794c-49.875 0-90.353-41.705-90.353-93.091s40.478-93.091 90.353-93.091h451.765v-186.182h-632.471c-99.659 0-180.706-83.503-180.706-186.182v-46.545h1445.647v46.545c0 102.679-81.047 186.182-180.706 186.182zM0 168.727v-46.545c0-102.679 81.047-186.182 180.706-186.182h1084.235c99.659 0 180.706 83.503 180.706 186.182v46.545h-1445.647z" />
</font>
</defs>
</svg>
